Queensryche – Operation: Livecrime




No Cover available

Artist: Queensryche
Year: 1991
Genre: Metal
Notes: Discogs
Add. Notes:
Watch Songs on: YouTube
Cover incl.: Yes
Encoder: FLAC
Bitrate: ~1000 kBit/s (44.1 kHz/16 Bit/s)
Log & Cue incl.: Yes/Yes
Size: 451,11 MB
Password: “slam” (without ” “)


All Downloads/Hosters are compatible

Download 1
KatFile.com
Turbobit.net
Rapidgator.net
FileFactory.com
Download 2
KatFile.com
Turbobit.net
Rapidgator.net
FileFactory.com

Tracklist:

1 I Remember Now 1:19
2 Anarchy-X 1:27
3 Revolution Calling 4:58
4 Operation: Mindcrime 4:26
5 Speak 3:44
6 Spreading The Disease 5:06
7 The Mission 5:46
8 Suite Sister Mary 12:08
9 The Needle Lies 3:19
10 Electric Requiem 1:15
11 Breaking The Silence 4:22
12 I Don't Believe In Love 4:19
13 Waiting For 22 1:27
14 My Empty Room 1:37
15 Eyes Of A Stranger 8:27

EAC-Log, CUE-Sheed & NFO:

Click to open spoiler
Exact Audio Copy V1.3 from 2. September 2016

EAC extraction logfile from 1. April 2019, 10:06

Queensryche / Operation: Livecrime

Used drive : ASUS DRW-24B1ST Adapter: 1 ID: 1

Read mode : Secure
Utilize accurate stream : Yes
Defeat audio cache : Yes
Make use of C2 pointers : No

Read offset correction : 6
Overread into Lead-In and Lead-Out : No
Fill up missing offset samples with silence : Yes
Delete leading and trailing silent blocks : No
Null samples used in CRC calculations : Yes
Used interface : Native Win32 interface for Win NT & 2000

Used output format : User Defined Encoder
Selected bitrate : 1024 kBit/s
Quality : High
Add ID3 tag : No
Command line compressor : E:\Install\All for Music\Lossless\FLAC_1.3.2\flac-1.3.2-git-20170314-x64-icl\flac.exe
Additional command line options : -V -8 -T “Genre=%genre%” -T “Artist=%artist%” -T “Title=%title%” -T “Album=%albumtitle%” -T “Date=%year%” -T “Tracknumber=%tracknr%” -T “Comment=%comment%” %source%

TOC of the extracted CD

Track | Start | Length | Start sector | End sector
———————————————————
1 | 0:00.00 | 1:19.42 | 0 | 5966
2 | 1:19.42 | 1:27.65 | 5967 | 12556
3 | 2:47.32 | 4:58.20 | 12557 | 34926
4 | 7:45.52 | 4:26.53 | 34927 | 54929
5 | 12:12.30 | 3:44.12 | 54930 | 71741
6 | 15:56.42 | 5:05.70 | 71742 | 94686
7 | 21:02.37 | 5:47.48 | 94687 | 120759
8 | 26:50.10 | 11:37.22 | 120760 | 173056
9 | 38:27.32 | 3:19.43 | 173057 | 188024
10 | 41:47.00 | 1:16.07 | 188025 | 193731
11 | 43:03.07 | 4:21.45 | 193732 | 213351
12 | 47:24.52 | 4:19.10 | 213352 | 232786
13 | 51:43.62 | 1:27.48 | 232787 | 239359
14 | 53:11.35 | 1:37.17 | 239360 | 246651
15 | 54:48.52 | 8:25.08 | 246652 | 284534

Range status and errors

Selected range

Filename E:\Ginger Devil\1991 – Operation Livecrime (EMI Records USA, DPRO #4811, U.S.A.)\Queensryche – Operation Livecrime (DPRO #4811).wav

Peak level 85.1 %
Extraction speed 5.8 X
Range quality 100.0 %
Test CRC B9C30E80
Copy CRC B9C30E80
Copy OK

No errors occurred

AccurateRip summary

Track 1 accurately ripped (confidence 85) [47AF8D60] (AR v2)
Track 2 accurately ripped (confidence 86) [15626392] (AR v2)
Track 3 accurately ripped (confidence 86) [078CB62A] (AR v2)
Track 4 accurately ripped (confidence 87) [98877189] (AR v2)
Track 5 accurately ripped (confidence 87) [F4F186D6] (AR v2)
Track 6 accurately ripped (confidence 87) [0B44A023] (AR v2)
Track 7 accurately ripped (confidence 87) [F4B3182C] (AR v2)
Track 8 accurately ripped (confidence 87) [BE049FEF] (AR v2)
Track 9 accurately ripped (confidence 87) [0EE58678] (AR v2)
Track 10 accurately ripped (confidence 87) [2A3360DA] (AR v2)
Track 11 accurately ripped (confidence 87) [F4B05335] (AR v2)
Track 12 accurately ripped (confidence 86) [C637E970] (AR v2)
Track 13 accurately ripped (confidence 87) [B84B88E1] (AR v2)
Track 14 accurately ripped (confidence 87) [E4BD5320] (AR v2)
Track 15 accurately ripped (confidence 85) [1A514A56] (AR v2)

All tracks accurately ripped

End of status report

—- CUETools DB Plugin V2.1.6

[CTDB TOCID: GXYN08aU85TqrQOlbeejFUNgZkY-] found
Submit result: GXYN08aU85TqrQOlbeejFUNgZkY- has been confirmed
Track | CTDB Status
1 | (201/203) Accurately ripped
2 | (202/203) Accurately ripped
3 | (202/203) Accurately ripped
4 | (202/203) Accurately ripped
5 | (202/203) Accurately ripped
6 | (202/203) Accurately ripped
7 | (202/203) Accurately ripped
8 | (201/203) Accurately ripped
9 | (201/203) Accurately ripped
10 | (202/203) Accurately ripped
11 | (202/203) Accurately ripped
12 | (202/203) Accurately ripped
13 | (202/203) Accurately ripped
14 | (202/203) Accurately ripped
15 | (200/203) Accurately ripped

==== Log checksum D390844776F41458EDAAB038AA0BE1DDD0D20004669DEDB7F71E7683B0554F83 ====

REM GENRE “Heavy Metal”
REM DATE 1991
REM DISCID D40ED10F
REM COMMENT “ExactAudioCopy v1.3”
PERFORMER “Queensryche”
TITLE “Operation: LIVEcrime (DPRO 4811)”
REM COMPOSER “Queensryche”
FILE “Queensryche – Operation LIVEcrime (DPRO 4811).flac” WAVE
TRACK 01 AUDIO
TITLE “I Remember Now”
PERFORMER “Queensryche”
REM COMPOSER “Queensryche”
INDEX 01 00:00:00
TRACK 02 AUDIO
TITLE “Anarchy-X”
PERFORMER “Queensryche”
REM COMPOSER “Queensryche”
INDEX 01 01:19:42
TRACK 03 AUDIO
TITLE “Revolution Calling”
PERFORMER “Queensryche”
REM COMPOSER “Queensryche”
INDEX 01 02:47:32
TRACK 04 AUDIO
TITLE “Operation: Mindcrime”
PERFORMER “Queensryche”
REM COMPOSER “Queensryche”
INDEX 01 07:45:52
TRACK 05 AUDIO
TITLE “Speak”
PERFORMER “Queensryche”
REM COMPOSER “Queensryche”
INDEX 01 12:12:30
TRACK 06 AUDIO
TITLE “Spreading The Disease”
PERFORMER “Queensryche”
REM COMPOSER “Queensryche”
INDEX 01 15:56:42
TRACK 07 AUDIO
TITLE “The Mission”
PERFORMER “Queensryche”
REM COMPOSER “Queensryche”
INDEX 01 21:02:37
TRACK 08 AUDIO
TITLE “Suite Sister Mary”
PERFORMER “Queensryche”
REM COMPOSER “Queensryche”
INDEX 01 26:50:10
TRACK 09 AUDIO
TITLE “The Needle Lies”
PERFORMER “Queensryche”
REM COMPOSER “Queensryche”
INDEX 01 38:27:32
TRACK 10 AUDIO
TITLE “Electric Requiem”
PERFORMER “Queensryche”
REM COMPOSER “Queensryche”
INDEX 01 41:47:00
TRACK 11 AUDIO
TITLE “Breaking The Silence”
PERFORMER “Queensryche”
REM COMPOSER “Queensryche”
INDEX 01 43:03:07
TRACK 12 AUDIO
TITLE “I Don’t Believe In Love”
PERFORMER “Queensryche”
REM COMPOSER “Queensryche”
INDEX 01 47:24:52
TRACK 13 AUDIO
TITLE “Waiting For 22”
PERFORMER “Queensryche”
REM COMPOSER “Queensryche”
INDEX 01 51:43:62
TRACK 14 AUDIO
TITLE “My Empty Room”
PERFORMER “Queensryche”
REM COMPOSER “Queensryche”
INDEX 01 53:11:35
TRACK 15 AUDIO
TITLE “Eyes Of A Stranger”
PERFORMER “Queensryche”
REM COMPOSER “Queensryche”
INDEX 01 54:48:52


Leave a Reply

Your email address will not be published. Required fields are marked *

Enter the text from the image below
 

This site uses Akismet to reduce spam. Learn how your comment data is processed.