Queensryche – Operation: Livecrime (Japanese Edition)




No Cover available

Artist: Queensryche
Year: 1991/2001
Genre: Metal
Notes: Discogs
Add. Notes: Japanese Edition
Watch Songs on: YouTube
Cover incl.: Yes
Encoder: FLAC
Bitrate: ~1100 kBit/s (44.1 kHz/16 Bit/s)
Log & Cue incl.: Yes/Yes
Size: 708,49 MB
Password: “slam” (without ” “)


All Downloads/Hosters are compatible

Download 1
KatFile.com
Turbobit.net
Rapidgator.net
FileFactory.com
Download 2
KatFile.com
Turbobit.net
Rapidgator.net
FileFactory.com

Tracklist:

1 I Remember Now 
2 Anarchy-X 
3 Revolution Calling 
4 Operation: Mindcrime 
5 Speak 
6 Spreading The Disease 
7 The Mission 
8 Suite Sister Mary 
9 The Needle Lies 
10 Electric Requiem 
11 Breaking The Silence 
12 I Don't Believe In Love 
13 Waiting For 22 
14 My Empty Room 
15 Eyes Of A Stranger 

Bonus Tracks
16 The Lady Wore Black 
17 Roads To Madness

EAC-Log, CUE-Sheed & NFO:

Click to open spoiler
Exact Audio Copy V0.99 prebeta 5 from 4. May 2009

Archivo Log de extracciones desde 16. Noviembre 2012, 16:01

QUEENSRYCHE / Operation Livecrime – Japan (TOCP-65886)

Usar unidad : HL-DT-STDVDRAM GH22NS70 Adapter: 0 ID: 0

Modo de Lectura : Seguro
Utilizar Corriente Exacta : Sí
Descartar Audio caché : Sí
Utilizar los punteros C2 : No

Corrección de Desplazamiento de Lectura : 667
Sobreleer tanto en Lead-In como en Lead-Out : No
Rellenar las muestras faltantes con silencios : Sí
Eliminar silencios inicial y final : No
Se han usado muestras nulas en los cálculos CRC : Sí
Interfaz usada : Interfaz propio de Win32 para Windowns NT y 2000

Formato de Salida utilizado : Compresor definido por el usuario
Bitrate seleccionado : 32 kBit/s
Calidad : Alta
Añadir Etiqueta ID3 : No
Compresor de linea de comandos : C:\Program Files (x86)\Exact Audio Copy\Flac\flac.exe
Opciones adicionales en línea de comandos : -6 -V %s

TOC del CD extraido

Pista | Inicio | Duración | Sector inicial | Sector final
————————————————————-
1 | 0:00.00 | 1:20.10 | 0 | 6009
2 | 1:20.10 | 1:27.57 | 6010 | 12591
3 | 2:47.67 | 4:58.30 | 12592 | 34971
4 | 7:46.22 | 4:26.58 | 34972 | 54979
5 | 12:13.05 | 3:44.25 | 54980 | 71804
6 | 15:57.30 | 5:06.40 | 71805 | 94794
7 | 21:03.70 | 5:46.60 | 94795 | 120804
8 | 26:50.55 | 12:08.47 | 120805 | 175451
9 | 38:59.27 | 3:19.53 | 175452 | 190429
10 | 42:19.05 | 1:15.15 | 190430 | 196069
11 | 43:34.20 | 4:22.27 | 196070 | 215746
12 | 47:56.47 | 4:18.55 | 215747 | 235151
13 | 52:15.27 | 1:28.08 | 235152 | 241759
14 | 53:43.35 | 1:37.12 | 241760 | 249046
15 | 55:20.47 | 8:28.00 | 249047 | 287146
16 | 63:48.47 | 6:44.58 | 287147 | 317504
17 | 70:33.30 | 9:22.12 | 317505 | 359666

Gama de estados y errores

Seleccionar gama

Nombre de Archivo E:\Música\EAC\Queesnryche\Operation LiveCrime\QUEENSRYCHE – Operation Livecrime – Japan (TOCP-65886).wav

Nivel Pico 98.8 %
Gama de Calidad 100.0 %
Test CRC 61B45FD4
Copiar CRC 61B45FD4
Copia OK

Sin Errores

Resumen AccurateRip

Pista 1 extraido de modo preciso (nivel de confianza 2) [E70B0827]
Pista 2 extraido de modo preciso (nivel de confianza 2) [A48C5330]
Pista 3 extraido de modo preciso (nivel de confianza 2) [3F429ADF]
Pista 4 extraido de modo preciso (nivel de confianza 2) [0A801959]
Pista 5 extraido de modo preciso (nivel de confianza 2) [A736B292]
Pista 6 extraido de modo preciso (nivel de confianza 2) [58C2B37D]
Pista 7 extraido de modo preciso (nivel de confianza 2) [8B5A478F]
Pista 8 extraido de modo preciso (nivel de confianza 2) [71CD90E5]
Pista 9 extraido de modo preciso (nivel de confianza 2) [1EB658B7]
Pista 10 extraido de modo preciso (nivel de confianza 2) [C169C8E4]
Pista 11 extraido de modo preciso (nivel de confianza 2) [8E10AEEC]
Pista 12 extraido de modo preciso (nivel de confianza 2) [49437A65]
Pista 13 extraido de modo preciso (nivel de confianza 2) [902D8433]
Pista 14 extraido de modo preciso (nivel de confianza 2) [54533780]
Pista 15 extraido de modo preciso (nivel de confianza 2) [421BC93E]
Pista 16 extraido de modo preciso (nivel de confianza 2) [7CBA36DA]
Pista 17 extraido de modo preciso (nivel de confianza 2) [9E1D0EEC]

Todas las pistas extraidas de modo preciso

Final del Informe

REM GENRE “Heavy Metal”
REM DATE 1991/2001
REM DISCID EA12BB11
REM COMMENT “ExactAudioCopy v0.99pb5”
PERFORMER “Queensryche”
TITLE “Operation: LIVEcrime (TOCP-65886)”
FILE “Queensryche – Operation LIVEcrime (TOCP-65886).flac” WAVE
TRACK 01 AUDIO
TITLE “I Remember Now”
PERFORMER “Queensryche”
INDEX 01 00:00:00
TRACK 02 AUDIO
TITLE “Anarchy-X”
PERFORMER “Queensryche”
INDEX 01 01:20:10
TRACK 03 AUDIO
TITLE “Revolution Calling”
PERFORMER “Queensryche”
INDEX 01 02:47:67
TRACK 04 AUDIO
TITLE “Operation: Mindcrime”
PERFORMER “Queensryche”
INDEX 01 07:46:22
TRACK 05 AUDIO
TITLE “Speak”
PERFORMER “Queensryche”
INDEX 01 12:13:05
TRACK 06 AUDIO
TITLE “Spreading The Disease”
PERFORMER “Queensryche”
INDEX 01 15:57:30
TRACK 07 AUDIO
TITLE “The Mission”
PERFORMER “Queensryche”
INDEX 01 21:03:70
TRACK 08 AUDIO
TITLE “Suite Sister Mary”
PERFORMER “Queensryche”
INDEX 01 26:50:55
TRACK 09 AUDIO
TITLE “The Needle Lies”
PERFORMER “Queensryche”
INDEX 01 38:59:27
TRACK 10 AUDIO
TITLE “Electric Requiem”
PERFORMER “Queensryche”
INDEX 01 42:19:05
TRACK 11 AUDIO
TITLE “Breaking The Silence”
PERFORMER “Queensryche”
INDEX 01 43:34:20
TRACK 12 AUDIO
TITLE “I Don’t Believe In Love”
PERFORMER “Queensryche”
INDEX 01 47:56:47
TRACK 13 AUDIO
TITLE “Waiting For 22”
PERFORMER “Queensryche”
INDEX 01 52:15:27
TRACK 14 AUDIO
TITLE “My Empty Room”
PERFORMER “Queensryche”
INDEX 01 53:43:35
TRACK 15 AUDIO
TITLE “Eyes Of A Stranger”
PERFORMER “Queensryche”
INDEX 01 55:20:47
TRACK 16 AUDIO
TITLE “The Lady Wore Black”
PERFORMER “Queensryche”
INDEX 00 63:45:65
INDEX 01 63:48:47
TRACK 17 AUDIO
TITLE “Roads To Madness”
PERFORMER “Queensryche”
INDEX 01 70:33:30


0

Publication author

offline 7 hours

Chaos

3
Comments: 4Publics: 3424Registration: 02-02-2019
Spread the Download

Leave a Reply

Your email address will not be published. Required fields are marked *

Enter the text from the image below
 

This site uses Akismet to reduce spam. Learn how your comment data is processed.