Queensryche – Mindcrime At The Moore (Promo)




No Cover available

Artist: Queensryche
Year: 2007
Genre: Metal
Notes: Discogs
Add. Notes: Promo
Watch Songs on: YouTube
Cover incl.: Yes
Encoder: FLAC
Bitrate: ~1000 kBit/s (44.1 kHz/16 Bit/s)
Log & Cue incl.: Yes/Yes
Size: 1050,6 MB
Password: “slam” (without ” “)


All Downloads/Hosters are compatible

Download 1
KatFile.com
Turbobit.net
Rapidgator.net
FileFactory.com
Download 2
KatFile.com
Turbobit.net
Rapidgator.net
FileFactory.com

Tracklist:

Disc 1
01 I Remember Now 1:36
02 Anarchy-X 1:39
03 Revolution Calling 5:27
04 Operation: Mindcrime 4:52
05 Speak 3:59
06 Spreading The Disease 4:38
07 The Mission 6:46
08 Suite Sister Mary 11:10
09 The Needle Lies 4:47
10 Electric Requiem 3:56
11 Breaking The Silence 4:34
12 I Don't Believe In Love 4:33
13 Waiting For 22 1:30
14 My Empty Room 3:24
15 Eyes Of A Stranger 8:11

Disc 2
01 Freiheit Ouvertüre 1:588
02 Convict 0:10
03 I'm American 3:41
04 One Foot In Hell 4:38
05 Hostage 4:48
06 The Hands 4:35
07 Speed Of Light 3:13
08 Signs Say Go 3:18
09 Re-Arrange You 3:10
10 The Chase 3:14
11 Murderer? 4:35
12 Circles 3:20
13 If I Could Change It All 4:28
14 An Intentional Confrontation 2:34
15 A Junkie's Blues 3:34
16 Fear City Slide 4:58
17 All The Promises 5:58
Encore
18 Walk In The Shadows 5:37
19 Jet City Woman 7:01

EAC-Log, CUE-Sheed & NFO:

Click to open spoiler
Exact Audio Copy V1.3 from 2. September 2016

EAC extraction logfile from 26. April 2019, 1:31

Queensryche / Mindcrime At The Moore (R2 74838) (CD-1)

Used drive : ASUS DRW-24B1ST Adapter: 1 ID: 1

Read mode : Secure
Utilize accurate stream : Yes
Defeat audio cache : Yes
Make use of C2 pointers : No

Read offset correction : 6
Overread into Lead-In and Lead-Out : No
Fill up missing offset samples with silence : Yes
Delete leading and trailing silent blocks : No
Null samples used in CRC calculations : Yes
Used interface : Native Win32 interface for Win NT & 2000

Used output format : User Defined Encoder
Selected bitrate : 1024 kBit/s
Quality : High
Add ID3 tag : No
Command line compressor : E:\Install\All for Music\Lossless\FLAC_1.3.2\flac-1.3.2-git-20170314-x64-icl\flac.exe
Additional command line options : -V -8 -T “Genre=%genre%” -T “Artist=%artist%” -T “Title=%title%” -T “Album=%albumtitle%” -T “Date=%year%” -T “Tracknumber=%tracknr%” -T “Comment=%comment%” %source%

TOC of the extracted CD

Track | Start | Length | Start sector | End sector
———————————————————
1 | 0:00.00 | 1:36.09 | 0 | 7208
2 | 1:36.09 | 1:38.55 | 7209 | 14613
3 | 3:14.64 | 5:26.44 | 14614 | 39107
4 | 8:41.33 | 4:51.56 | 39108 | 60988
5 | 13:33.14 | 3:58.47 | 60989 | 78885
6 | 17:31.61 | 4:38.15 | 78886 | 99750
7 | 22:10.01 | 6:46.12 | 99751 | 130212
8 | 28:56.13 | 11:10.22 | 130213 | 180484
9 | 40:06.35 | 4:46.44 | 180485 | 201978
10 | 44:53.04 | 3:55.68 | 201979 | 219671
11 | 48:48.72 | 4:33.67 | 219672 | 240213
12 | 53:22.64 | 4:33.07 | 240214 | 260695
13 | 57:55.71 | 1:30.12 | 260696 | 267457
14 | 59:26.08 | 3:24.01 | 267458 | 282758
15 | 62:50.09 | 8:11.37 | 282759 | 319620

Range status and errors

Selected range

Filename E:\Ginger Devil\2007 – Mindcrime At The Moore (Rhino, R2 74838, U.S.A.)\CD-1\Queensryche – Mindcrime At The Moore (R2 74838) (CD-1).wav

Peak level 100.0 %
Extraction speed 4.8 X
Range quality 100.0 %
Test CRC 892AE4EE
Copy CRC 892AE4EE
Copy OK

No errors occurred

AccurateRip summary

Track 1 accurately ripped (confidence 12) [A976ECFB] (AR v2)
Track 2 accurately ripped (confidence 12) [2C1DA059] (AR v2)
Track 3 accurately ripped (confidence 12) [A722C819] (AR v2)
Track 4 accurately ripped (confidence 12) [0BF44972] (AR v2)
Track 5 accurately ripped (confidence 12) [805E6E49] (AR v2)
Track 6 accurately ripped (confidence 11) [AC9453BC] (AR v2)
Track 7 accurately ripped (confidence 12) [3FAE5C77] (AR v2)
Track 8 accurately ripped (confidence 12) [330532B6] (AR v2)
Track 9 accurately ripped (confidence 12) [9FB1B2EF] (AR v2)
Track 10 accurately ripped (confidence 12) [5861DBD1] (AR v2)
Track 11 accurately ripped (confidence 12) [FB4BF8AD] (AR v2)
Track 12 accurately ripped (confidence 12) [78864A18] (AR v2)
Track 13 accurately ripped (confidence 12) [294E1293] (AR v2)
Track 14 accurately ripped (confidence 12) [6F3D2FD4] (AR v2)
Track 15 accurately ripped (confidence 12) [D018215A] (AR v2)

All tracks accurately ripped

End of status report

—- CUETools DB Plugin V2.1.6

[CTDB TOCID: 5.Klm6vC9Zbd4do5Qnm1tkK.le4-] found
Submit result: already submitted
Track | CTDB Status
1 | (54/55) Accurately ripped
2 | (55/55) Accurately ripped
3 | (55/55) Accurately ripped
4 | (55/55) Accurately ripped
5 | (55/55) Accurately ripped
6 | (55/55) Accurately ripped
7 | (55/55) Accurately ripped
8 | (55/55) Accurately ripped
9 | (55/55) Accurately ripped
10 | (55/55) Accurately ripped
11 | (55/55) Accurately ripped
12 | (54/55) Accurately ripped
13 | (54/55) Accurately ripped
14 | (53/55) Accurately ripped
15 | (53/55) Accurately ripped

==== Log checksum 89798222A84C2FC67E2155F712274BE5210E2345E0E2CE84EC40686181FBB2D1 ====

Exact Audio Copy V1.3 from 2. September 2016

EAC extraction logfile from 26. April 2019, 6:36

Queensryche / Mindcrime At The Moore (R2 74838) (CD-2)

Used drive : ASUS DRW-24B1ST Adapter: 1 ID: 1

Read mode : Secure
Utilize accurate stream : Yes
Defeat audio cache : Yes
Make use of C2 pointers : No

Read offset correction : 6
Overread into Lead-In and Lead-Out : No
Fill up missing offset samples with silence : Yes
Delete leading and trailing silent blocks : No
Null samples used in CRC calculations : Yes
Used interface : Native Win32 interface for Win NT & 2000

Used output format : User Defined Encoder
Selected bitrate : 1024 kBit/s
Quality : High
Add ID3 tag : No
Command line compressor : E:\Install\All for Music\Lossless\FLAC_1.3.2\flac-1.3.2-git-20170314-x64-icl\flac.exe
Additional command line options : -V -8 -T “Genre=%genre%” -T “Artist=%artist%” -T “Title=%title%” -T “Album=%albumtitle%” -T “Date=%year%” -T “Tracknumber=%tracknr%” -T “Comment=%comment%” %source%

TOC of the extracted CD

Track | Start | Length | Start sector | End sector
———————————————————
1 | 0:00.00 | 1:57.62 | 0 | 8836
2 | 1:57.62 | 0:09.55 | 8837 | 9566
3 | 2:07.42 | 3:40.38 | 9567 | 26104
4 | 5:48.05 | 4:37.42 | 26105 | 46921
5 | 10:25.47 | 4:48.21 | 46922 | 68542
6 | 15:13.68 | 4:35.00 | 68543 | 89167
7 | 19:48.68 | 3:12.51 | 89168 | 103618
8 | 23:01.44 | 3:17.66 | 103619 | 118459
9 | 26:19.35 | 3:10.21 | 118460 | 132730
10 | 29:29.56 | 3:13.56 | 132731 | 147261
11 | 32:43.37 | 4:34.55 | 147262 | 167866
12 | 37:18.17 | 3:19.59 | 167867 | 182850
13 | 40:38.01 | 4:27.59 | 182851 | 202934
14 | 45:05.60 | 2:34.18 | 202935 | 214502
15 | 47:40.03 | 3:33.72 | 214503 | 230549
16 | 51:14.00 | 4:57.42 | 230550 | 252866
17 | 56:11.42 | 5:57.64 | 252867 | 279705
18 | 62:09.31 | 5:37.14 | 279706 | 304994
19 | 67:46.45 | 7:01.19 | 304995 | 336588

Range status and errors

Selected range

Filename E:\Ginger Devil\2007 – Mindcrime At The Moore (Rhino, R2 74838, U.S.A.)\CD-2\Queensryche – Mindcrime At The Moore (R2 74838) (CD-2).wav

Peak level 99.0 %
Extraction speed 4.9 X
Range quality 100.0 %
Test CRC 35481981
Copy CRC 35481981
Copy OK

No errors occurred

AccurateRip summary

Track 1 accurately ripped (confidence 12) [7122F16C] (AR v2)
Track 2 accurately ripped (confidence 12) [A6D00938] (AR v2)
Track 3 accurately ripped (confidence 12) [5C19507E] (AR v2)
Track 4 accurately ripped (confidence 12) [1B278C45] (AR v2)
Track 5 accurately ripped (confidence 12) [9DF68DDE] (AR v2)
Track 6 accurately ripped (confidence 12) [37D419D3] (AR v2)
Track 7 accurately ripped (confidence 12) [2612A4C6] (AR v2)
Track 8 accurately ripped (confidence 12) [98576DF1] (AR v2)
Track 9 accurately ripped (confidence 12) [371ED55B] (AR v2)
Track 10 accurately ripped (confidence 12) [1A7802CB] (AR v2)
Track 11 accurately ripped (confidence 12) [D3E6ED09] (AR v2)
Track 12 accurately ripped (confidence 12) [5A1BB1CA] (AR v2)
Track 13 accurately ripped (confidence 12) [C890783E] (AR v2)
Track 14 accurately ripped (confidence 12) [60BF9BA1] (AR v2)
Track 15 accurately ripped (confidence 12) [38A71DF0] (AR v2)
Track 16 accurately ripped (confidence 12) [9641BEB4] (AR v2)
Track 17 accurately ripped (confidence 12) [DBF6C325] (AR v2)
Track 18 accurately ripped (confidence 11) [EC5F40FB] (AR v2)
Track 19 accurately ripped (confidence 12) [1E060374] (AR v2)

All tracks accurately ripped

End of status report

—- CUETools DB Plugin V2.1.6

[CTDB TOCID: stukBuJUDdkT6zEyl3N.Q0_EEbI-] found
Submit result: already submitted
Track | CTDB Status
1 | (55/55) Accurately ripped
2 | (55/55) Accurately ripped
3 | (55/55) Accurately ripped
4 | (55/55) Accurately ripped
5 | (55/55) Accurately ripped
6 | (55/55) Accurately ripped
7 | (55/55) Accurately ripped
8 | (55/55) Accurately ripped
9 | (55/55) Accurately ripped
10 | (55/55) Accurately ripped
11 | (55/55) Accurately ripped
12 | (55/55) Accurately ripped
13 | (55/55) Accurately ripped
14 | (55/55) Accurately ripped
15 | (55/55) Accurately ripped
16 | (55/55) Accurately ripped
17 | (55/55) Accurately ripped
18 | (54/55) Accurately ripped
19 | (54/55) Accurately ripped

==== Log checksum D39D9084D3780F82F00E0C39DF6016DAB7527254ED433862D766F7B877864B71 ====

REM GENRE “Heavy Metal”
REM DATE 2007
REM DISCID D910A50F
REM COMMENT “ExactAudioCopy v1.3”
CATALOG 0081227483821
PERFORMER “Queensryche”
TITLE “Mindcrime At The Moore (R2 74838) (CD-1)”
REM COMPOSER “Queensryche”
FILE “Queensryche – Mindcrime At The Moore (R2 74838) (CD-1).flac” WAVE
TRACK 01 AUDIO
TITLE “I Remember Now”
PERFORMER “Queensryche”
REM COMPOSER “Queensryche”
ISRC USRH10721079
INDEX 01 00:00:00
TRACK 02 AUDIO
TITLE “Anarchy-X”
PERFORMER “Queensryche”
REM COMPOSER “Queensryche”
ISRC USRH10721080
INDEX 01 01:36:09
TRACK 03 AUDIO
TITLE “Revolution Calling”
PERFORMER “Queensryche”
REM COMPOSER “Queensryche”
ISRC USRH10721080
INDEX 01 03:14:64
TRACK 04 AUDIO
TITLE “Operation: Mindcrime”
PERFORMER “Queensryche”
REM COMPOSER “Queensryche”
ISRC USRH10721082
INDEX 01 08:41:33
TRACK 05 AUDIO
TITLE “Speak”
PERFORMER “Queensryche”
REM COMPOSER “Queensryche”
ISRC USRH10721083
INDEX 01 13:33:14
TRACK 06 AUDIO
TITLE “Spreading The Disease”
PERFORMER “Queensryche”
REM COMPOSER “Queensryche”
ISRC USRH10721084
INDEX 01 17:31:61
TRACK 07 AUDIO
TITLE “The Mission”
PERFORMER “Queensryche”
REM COMPOSER “Queensryche”
ISRC USRH10721085
INDEX 01 22:10:01
TRACK 08 AUDIO
TITLE “Suite Sister Mary”
PERFORMER “Queensryche”
REM COMPOSER “Queensryche”
ISRC USRH10721086
INDEX 01 28:56:13
TRACK 09 AUDIO
TITLE “The Needle Lies”
PERFORMER “Queensryche”
REM COMPOSER “Queensryche”
ISRC USRH10721087
INDEX 01 40:06:35
TRACK 10 AUDIO
TITLE “Electric Requiem”
PERFORMER “Queensryche”
REM COMPOSER “Queensryche”
ISRC USRH10721088
INDEX 01 44:53:04
TRACK 11 AUDIO
TITLE “Breaking The Silence”
PERFORMER “Queensryche”
REM COMPOSER “Queensryche”
ISRC USRH10721089
INDEX 01 48:48:72
TRACK 12 AUDIO
TITLE “I Don’t Believe In Love”
PERFORMER “Queensryche”
REM COMPOSER “Queensryche”
ISRC USRH10721090
INDEX 01 53:22:64
TRACK 13 AUDIO
TITLE “Waiting For 22”
PERFORMER “Queensryche”
REM COMPOSER “Queensryche”
ISRC USRH10721090
INDEX 01 57:55:71
TRACK 14 AUDIO
TITLE “My Empty Room”
PERFORMER “Queensryche”
REM COMPOSER “Queensryche”
ISRC USRH10721092
INDEX 01 59:26:08
TRACK 15 AUDIO
TITLE “Eyes Of A Stranger”
PERFORMER “Queensryche”
REM COMPOSER “Queensryche”
ISRC USRH10721093
INDEX 01 62:50:09

REM GENRE “Heavy Metal”
REM DATE 2007
REM DISCID 02118713
REM COMMENT “ExactAudioCopy v1.3”
CATALOG 0081227483821
PERFORMER “Queensryche”
TITLE “Mindcrime At The Moore (R2 74838) (CD-2)”
REM COMPOSER “Queensryche”
FILE “Queensryche – Mindcrime At The Moore (R2 74838) (CD-2).flac” WAVE
TRACK 01 AUDIO
TITLE “Freiheit Ouverture”
PERFORMER “Queensryche”
REM COMPOSER “Queensryche”
ISRC USRH10721094
INDEX 01 00:00:00
TRACK 02 AUDIO
TITLE “Convict”
PERFORMER “Queensryche”
REM COMPOSER “Queensryche”
ISRC USRH10721095
INDEX 01 01:57:62
TRACK 03 AUDIO
TITLE “I’m American”
PERFORMER “Queensryche”
REM COMPOSER “Queensryche”
ISRC USRH10721096
INDEX 01 02:07:42
TRACK 04 AUDIO
TITLE “One Foot In Hell”
PERFORMER “Queensryche”
REM COMPOSER “Queensryche”
ISRC USRH10721097
INDEX 01 05:48:05
TRACK 05 AUDIO
TITLE “Hostage”
PERFORMER “Queensryche”
REM COMPOSER “Queensryche”
ISRC USRH10721098
INDEX 01 10:25:47
TRACK 06 AUDIO
TITLE “The Hands”
PERFORMER “Queensryche”
REM COMPOSER “Queensryche”
ISRC USRH10721099
INDEX 01 15:13:68
TRACK 07 AUDIO
TITLE “Speed Of Light”
PERFORMER “Queensryche”
REM COMPOSER “Queensryche”
ISRC USRH10721100
INDEX 01 19:48:68
TRACK 08 AUDIO
TITLE “Signs Say Go”
PERFORMER “Queensryche”
REM COMPOSER “Queensryche”
ISRC USRH10721101
INDEX 01 23:01:44
TRACK 09 AUDIO
TITLE “Re-Arrange You”
PERFORMER “Queensryche”
REM COMPOSER “Queensryche”
ISRC USRH10721102
INDEX 01 26:19:35
TRACK 10 AUDIO
TITLE “The Chase”
PERFORMER “Queensryche”
REM COMPOSER “Queensryche”
ISRC USRH10721102
INDEX 01 29:29:56
TRACK 11 AUDIO
TITLE “Murderer?”
PERFORMER “Queensryche”
REM COMPOSER “Queensryche”
ISRC USRH10721104
INDEX 01 32:43:37
TRACK 12 AUDIO
TITLE “Circles”
PERFORMER “Queensryche”
REM COMPOSER “Queensryche”
ISRC USRH10721105
INDEX 01 37:18:17
TRACK 13 AUDIO
TITLE “If I Could Change It All”
PERFORMER “Queensryche”
REM COMPOSER “Queensryche”
ISRC USRH10721106
INDEX 01 40:38:01
TRACK 14 AUDIO
TITLE “An Intentional Confrontation”
PERFORMER “Queensryche”
REM COMPOSER “Queensryche”
ISRC USRH10721106
INDEX 01 45:05:60
TRACK 15 AUDIO
TITLE “A Junkie’s Blues”
PERFORMER “Queensryche”
REM COMPOSER “Queensryche”
ISRC USRH10721108
INDEX 01 47:40:03
TRACK 16 AUDIO
TITLE “Fear City Slide”
PERFORMER “Queensryche”
REM COMPOSER “Queensryche”
ISRC USRH10721108
INDEX 01 51:14:00
TRACK 17 AUDIO
TITLE “All The Promises”
PERFORMER “Queensryche”
REM COMPOSER “Queensryche”
ISRC USRH10721110
INDEX 01 56:11:42
TRACK 18 AUDIO
TITLE “Walk In The Shadows”
PERFORMER “Queensryche”
REM COMPOSER “Queensryche”
ISRC USRH10721110
INDEX 01 62:09:31
TRACK 19 AUDIO
TITLE “Jet City Woman”
PERFORMER “Queensryche”
REM COMPOSER “Queensryche”
ISRC USRH10721112
INDEX 01 67:46:45


0

Publication author

offline 15 hours

Chaos

3
Comments: 4Publics: 3418Registration: 02-02-2019
Spread the Download

Leave a Reply

Your email address will not be published. Required fields are marked *

Enter the text from the image below
 

This site uses Akismet to reduce spam. Learn how your comment data is processed.