Queensryche – Frequency Unknown




No Cover available

Artist: Queensryche
Year: 2013
Genre: Metal
Notes: Discogs
Add. Notes:
Watch Songs on: YouTube
Cover incl.: Yes
Encoder: FLAC
Bitrate: ~1000 kBit/s (44.1 kHz/16 Bit/s)
Log & Cue incl.: Yes/Yes
Size: 463 MB
Password: “slam” (without ” “)


All Downloads/Hosters are compatible

Download 1
KatFile.com
Turbobit.net
FileFactory.com
Rapidgator.net
Download 2
KatFile.com
Turbobit.net
FileFactory.com
Rapidgator.net

Tracklist:

1 Cold 3:37
2 Dare 3:34
3 Give It To You 4:34
4 Slave 3:53
5 In The Hands Of God 3:49
6 Running Backwards 3:26
7 Life Without You 4:38
8 Everything 4:14
9 Fallen 4:12
10 The Weight Of The World 6:14
11 I Don't Believe In Love 4:26
12 Empire 5:25
13 Jet City Woman 5:22
14 Silent Lucidity 5:46

EAC-Log, CUE-Sheed & NFO:

Click to open spoiler
Exact Audio Copy V1.1 from 23. June 2015

EAC extraction logfile from 16. March 2016, 19:35

Queensryche & Geoff Tate / Frequency Unknown

Used drive : ASUS DRW-24B1ST Adapter: 1 ID: 1

Read mode : Secure
Utilize accurate stream : Yes
Defeat audio cache : Yes
Make use of C2 pointers : No

Read offset correction : 6
Overread into Lead-In and Lead-Out : No
Fill up missing offset samples with silence : Yes
Delete leading and trailing silent blocks : No
Null samples used in CRC calculations : Yes
Used interface : Native Win32 interface for Win NT & 2000

Used output format : User Defined Encoder
Selected bitrate : 1024 kBit/s
Quality : High
Add ID3 tag : No
Command line compressor : C:\Program Files (x86)\Exact Audio Copy\Flac\flac.exe
Additional command line options : -V -8 -T “Date=%year%” -T “Genre=%genre%” %source%

TOC of the extracted CD

Track | Start | Length | Start sector | End sector
———————————————————
1 | 0:00.00 | 3:38.72 | 0 | 16421
2 | 3:38.72 | 3:36.02 | 16422 | 32623
3 | 7:14.74 | 4:36.00 | 32624 | 53323
4 | 11:50.74 | 3:54.00 | 53324 | 70873
5 | 15:44.74 | 3:49.01 | 70874 | 88049
6 | 19:34.00 | 3:25.60 | 88050 | 103484
7 | 22:59.60 | 4:39.14 | 103485 | 124423
8 | 27:38.74 | 4:23.01 | 124424 | 144149
9 | 32:02.00 | 4:13.00 | 144150 | 163124
10 | 36:15.00 | 6:23.74 | 163125 | 191923
11 | 42:38.74 | 4:26.74 | 191924 | 211947
12 | 47:05.73 | 5:25.01 | 211948 | 236323
13 | 52:30.74 | 5:23.00 | 236324 | 260548
14 | 57:53.74 | 5:45.02 | 260549 | 286425

Range status and errors

Selected range

Filename E:\Torrent\Queensryche\Queensryche & Geoff Tate – Frequency Unknown (2013) (Deadline Music, CLP 0275, U.S.A.)\Queensryche & Geoff Tate – Frequency Unknown.wav

Peak level 96.6 %
Extraction speed 5.7 X
Range quality 99.9 %
Test CRC 7DF73024
Copy CRC 7DF73024
Copy OK

No errors occurred

AccurateRip summary

Track 1 accurately ripped (confidence 14) [CD0CF1DC] (AR v2)
Track 2 accurately ripped (confidence 14) [3194640F] (AR v2)
Track 3 accurately ripped (confidence 14) [8B5005FC] (AR v2)
Track 4 accurately ripped (confidence 14) [57572478] (AR v2)
Track 5 accurately ripped (confidence 14) [F6F49FA5] (AR v2)
Track 6 accurately ripped (confidence 14) [429620C8] (AR v2)
Track 7 accurately ripped (confidence 14) [C14C8971] (AR v2)
Track 8 accurately ripped (confidence 14) [C179272C] (AR v2)
Track 9 accurately ripped (confidence 14) [4787C2D2] (AR v2)
Track 10 accurately ripped (confidence 14) [A084E6BB] (AR v2)
Track 11 accurately ripped (confidence 14) [8D8F095E] (AR v2)
Track 12 accurately ripped (confidence 14) [9A1E8740] (AR v2)
Track 13 accurately ripped (confidence 14) [C7DDBF64] (AR v2)
Track 14 accurately ripped (confidence 14) [248CF9A3] (AR v2)

All tracks accurately ripped

End of status report

—- CUETools DB Plugin V2.1.6

[CTDB TOCID: hNl45iljbJ0qHSH_rSVzCTUVHUI-] found
Submit result: hNl45iljbJ0qHSH_rSVzCTUVHUI- has been confirmed
Track | CTDB Status
1 | (17/17) Accurately ripped
2 | (17/17) Accurately ripped
3 | (17/17) Accurately ripped
4 | (17/17) Accurately ripped
5 | (17/17) Accurately ripped
6 | (17/17) Accurately ripped
7 | (17/17) Accurately ripped
8 | (17/17) Accurately ripped
9 | (17/17) Accurately ripped
10 | (17/17) Accurately ripped
11 | (17/17) Accurately ripped
12 | (17/17) Accurately ripped
13 | (17/17) Accurately ripped
14 | (17/17) Accurately ripped

==== Log checksum 17F38A589D55D785E9673507DD3E1061E00B78399514B970EB44332422C9A9A1 ====

REM GENRE “Heavy Metal”
REM DATE 2013
REM DISCID B80EEB0E
REM COMMENT “ExactAudioCopy v1.1”
PERFORMER “Queensryche & Geoff Tate”
TITLE “Frequency Unknown (CLP 0275)”
FILE “Queensryche (Geoff Tate) – Frequency Unknown (CLP 0275).flac” WAVE
TRACK 01 AUDIO
TITLE “Cold”
PERFORMER “Queensryche (Geoff Tate)”
INDEX 01 00:00:00
TRACK 02 AUDIO
TITLE “Dare”
PERFORMER “Queensryche (Geoff Tate)”
INDEX 00 03:36:73
INDEX 01 03:38:72
TRACK 03 AUDIO
TITLE “Give It To You”
PERFORMER “Queensryche (Geoff Tate)”
INDEX 00 07:14:00
INDEX 01 07:14:74
TRACK 04 AUDIO
TITLE “Slave”
PERFORMER “Queensryche (Geoff Tate)”
INDEX 00 11:50:00
INDEX 01 11:50:74
TRACK 05 AUDIO
TITLE “In The Hands Of God”
PERFORMER “Queensryche (Geoff Tate)”
INDEX 00 15:44:00
INDEX 01 15:44:74
TRACK 06 AUDIO
TITLE “Running Backwards”
PERFORMER “Queensryche (Geoff Tate)”
INDEX 00 19:33:00
INDEX 01 19:34:00
TRACK 07 AUDIO
TITLE “Life Without You”
PERFORMER “Queensryche (Geoff Tate)”
INDEX 00 22:58:61
INDEX 01 22:59:60
TRACK 08 AUDIO
TITLE “Everything”
PERFORMER “Queensryche (Geoff Tate)”
INDEX 00 27:38:01
INDEX 01 27:38:74
TRACK 09 AUDIO
TITLE “Fallen”
PERFORMER “Queensryche (Geoff Tate)”
INDEX 00 32:01:01
INDEX 01 32:02:00
TRACK 10 AUDIO
TITLE “The Weight Of The World”
PERFORMER “Queensryche (Geoff Tate)”
INDEX 00 36:14:02
INDEX 01 36:15:00
TRACK 11 AUDIO
TITLE “I Don’t Believe In Love (Newly recorded) (Bonus track)”
PERFORMER “Queensryche (Geoff Tate)”
INDEX 00 42:29:00
INDEX 01 42:38:74
TRACK 12 AUDIO
TITLE “Empire (Newly recorded) (Bonus track)”
PERFORMER “Queensryche (Geoff Tate)”
INDEX 00 47:04:74
INDEX 01 47:05:73
TRACK 13 AUDIO
TITLE “Jet City Woman (Newly recorded) (Bonus track)”
PERFORMER “Queensryche (Geoff Tate)”
INDEX 00 52:30:00
INDEX 01 52:30:74
TRACK 14 AUDIO
TITLE “Silent Lucidity (Newly recorded) (Bonus track)”
PERFORMER “Queensryche (Geoff Tate)”
INDEX 00 57:53:00
INDEX 01 57:53:74


0

Publication author

offline 15 hours

Chaos

3
Comments: 4Publics: 3418Registration: 02-02-2019
Spread the Download

Leave a Reply

Your email address will not be published. Required fields are marked *

Enter the text from the image below
 

This site uses Akismet to reduce spam. Learn how your comment data is processed.