Queensryche – Empire




No Cover available

Artist: Queensryche
Year: 1990
Genre: Metal
Notes: Discogs
Add. Notes:
Watch Songs on: YouTube
Cover incl.: Yes
Encoder: FLAC
Bitrate: ~900 kBit/s (44.1 kHz/16 Bit/s)
Log & Cue incl.: Yes/Yes
Size: 442,1 MB
Password: “slam” (without ” “)


All Downloads/Hosters are compatible

Download 1
KatFile.com
Turbobit.net
FileFactory.com
Rapidgator.net
Download 2
KatFile.com
Turbobit.net
FileFactory.com
Rapidgator.net

Tracklist:

1 Best I Can 5:30
2 The Thin Line 5:42
3 Jet City Woman 5:20
4 Della Brown 7:04
5 Another Rainy Night (Without You) 4:44
6 Empire 5:07
7 Resistance 4:47
8 Silent Lucidity 5:45
9 Hand On Heart 5:30
10 One And Only 5:52
11 Anybody Listening? 7:40

EAC-Log, CUE-Sheed & NFO:

Click to open spoiler
Exact Audio Copy V1.0 beta 3 from 29. August 2011

EAC extraction logfile from 22. August 2013, 11:49

Queensryche / Empire [EMI, CDP 79 5069 2, Austria]

Used drive : PIONEER DVD-RW DVR-112D Adapter: 0 ID: 0

Read mode : Secure
Utilize accurate stream : Yes
Defeat audio cache : Yes
Make use of C2 pointers : No

Read offset correction : 48
Overread into Lead-In and Lead-Out : No
Fill up missing offset samples with silence : Yes
Delete leading and trailing silent blocks : No
Null samples used in CRC calculations : Yes
Used interface : Installed external ASPI interface

Used output format : User Defined Encoder
Selected bitrate : 1024 kBit/s
Quality : High
Add ID3 tag : No
Command line compressor : C:\Program Files\Exact Audio Copy\FLAC\FLAC.EXE
Additional command line options : -V -8 -T “Date=%year%” -T “Genre=%genre%” %source%

TOC of the extracted CD

Track | Start | Length | Start sector | End sector
———————————————————
1 | 0:00.00 | 5:34.35 | 0 | 25084
2 | 5:34.35 | 5:42.70 | 25085 | 50804
3 | 11:17.30 | 5:22.15 | 50805 | 74969
4 | 16:39.45 | 7:03.70 | 74970 | 106764
5 | 23:43.40 | 4:29.10 | 106765 | 126949
6 | 28:12.50 | 5:24.00 | 126950 | 151249
7 | 33:36.50 | 4:50.52 | 151250 | 173051
8 | 38:27.27 | 5:47.58 | 173052 | 199134
9 | 44:15.10 | 5:33.00 | 199135 | 224109
10 | 49:48.10 | 5:54.00 | 224110 | 250659
11 | 55:42.10 | 7:41.40 | 250660 | 285274

Range status and errors

Selected range

Filename C:\CDRip by Deminbek\Queensryche – Empire [EMI, CDP 79 5069 2, Austria].wav

Peak level 97.2 %
Extraction speed 7.5 X
Range quality 100.0 %
Test CRC AD9B4759
Copy CRC AD9B4759
Copy OK

No errors occurred

AccurateRip summary

Track 1 accurately ripped (confidence 53) [A8F40632] (AR v2)
Track 2 accurately ripped (confidence 53) [26DE12ED] (AR v2)
Track 3 accurately ripped (confidence 53) [5EC8068E] (AR v2)
Track 4 accurately ripped (confidence 53) [100F6198] (AR v2)
Track 5 accurately ripped (confidence 54) [02296195] (AR v2)
Track 6 accurately ripped (confidence 53) [71CE7549] (AR v2)
Track 7 accurately ripped (confidence 54) [2CB8BC24] (AR v2)
Track 8 accurately ripped (confidence 54) [162C0C2B] (AR v2)
Track 9 accurately ripped (confidence 53) [46A0E01E] (AR v2)
Track 10 accurately ripped (confidence 53) [0631C737] (AR v2)
Track 11 accurately ripped (confidence 53) [CC7C4BD3] (AR v2)

All tracks accurately ripped

End of status report

—- CUETools DB Plugin V2.1.3

[CTDB TOCID: jdhTIUuDxP7KmWha48aJyeAyamo-] found, Submit result: jdhTIUuDxP7KmWha48aJyeAyamo- has been confirmed
[bf8adf62] (012/269) No match
[1e55dde1] (175/269) No match
[602d11ab] (002/269) No match
[7a15ce26] (056/269) Accurately ripped
[97c90ae7] (016/269) No match
[4dc63152] (001/269) No match
[4ddcbe0d] (001/269) No match
[e27c7762] (001/269) No match
[269a0634] (001/269) No match
[334dcdd6] (001/269) No match
[36193342] (001/269) No match
[57693520] (001/269) No match
[ac90cc80] (001/269) No match

==== Log checksum B583635FBF1F11D6FBB109B9931B0A866D4575737D68941F5555A245033A0B42 ====

REM GENRE “Heavy Metal”
REM DATE 1990
REM DISCID 950EDB0B
REM COMMENT “ExactAudioCopy v1.0b3”
CATALOG 0000000000000
PERFORMER “Queensryche”
TITLE “Empire (CDP 79 5069 2, Austria)”
FILE “Queensryche – Empire (CDP 79 5069 2, Austria).flac” WAVE
TRACK 01 AUDIO
TITLE “Best I Can”
PERFORMER “Queensryche”
ISRC 000000000000
INDEX 01 00:00:00
TRACK 02 AUDIO
TITLE “The Thin Line”
PERFORMER “Queensryche”
ISRC 000000000000
INDEX 00 05:34:10
INDEX 01 05:34:35
TRACK 03 AUDIO
TITLE “Jet City Woman”
PERFORMER “Queensryche”
ISRC 000000000000
INDEX 00 11:17:27
INDEX 01 11:17:30
TRACK 04 AUDIO
TITLE “Della Brown”
PERFORMER “Queensryche”
ISRC 000000000000
INDEX 00 16:39:42
INDEX 01 16:39:45
TRACK 05 AUDIO
TITLE “Another Rainy Night (Without You)”
PERFORMER “Queensryche”
ISRC 000000000000
INDEX 00 23:43:37
INDEX 01 23:43:40
TRACK 06 AUDIO
TITLE “Empire”
PERFORMER “Queensryche”
ISRC 000000000000
INDEX 00 28:11:52
INDEX 01 28:12:50
TRACK 07 AUDIO
TITLE “Resistance”
PERFORMER “Queensryche”
ISRC 000000000000
INDEX 00 33:36:47
INDEX 01 33:36:50
TRACK 08 AUDIO
TITLE “Silent Lucidity”
PERFORMER “Queensryche”
ISRC 000000000000
INDEX 00 38:25:47
INDEX 01 38:27:27
TRACK 09 AUDIO
TITLE “Hand On Heart”
PERFORMER “Queensryche”
ISRC 000000000000
INDEX 00 44:14:67
INDEX 01 44:15:10
TRACK 10 AUDIO
TITLE “One And Only”
PERFORMER “Queensryche”
ISRC 000000000000
INDEX 00 49:47:02
INDEX 01 49:48:10
TRACK 11 AUDIO
TITLE “Anybody Listening?”
PERFORMER “Queensryche”
ISRC 000000000000
INDEX 00 55:42:07
INDEX 01 55:42:10


0

Publication author

offline 8 hours

Chaos

3
Comments: 4Publics: 3424Registration: 02-02-2019
Spread the Download

Leave a Reply

Your email address will not be published. Required fields are marked *

Enter the text from the image below
 

This site uses Akismet to reduce spam. Learn how your comment data is processed.