Queensryche – Empire (Remastered)




No Cover available

Artist: Queensryche
Year: 2000
Genre: Metal
Notes: Discogs
Add. Notes: Remastered
Watch Songs on: YouTube
Cover incl.: Yes
Encoder: FLAC
Bitrate: ~900 kBit/s (44.1 kHz/16 Bit/s)
Log & Cue incl.: Yes/Yes
Size: 443,9 MB
Password: “slam” (without ” “)


All Downloads/Hosters are compatible

Download 1
KatFile.com
Turbobit.net
Rapidgator.net
FileFactory.com
Download 2
KatFile.com
Turbobit.net
Rapidgator.net
FileFactory.com

Tracklist:

1 Best I Can 5:30
2 The Thin Line 5:42
3 Jet City Woman 5:20
4 Della Brown 7:04
5 Another Rainy Night (Without You) 4:44
6 Empire 5:07
7 Resistance 4:47
8 Silent Lucidity 5:45
9 Hand On Heart 5:30
10 One And Only 5:52
11 Anybody Listening? 7:40

EAC-Log, CUE-Sheed & NFO:

Click to open spoiler
Exact Audio Copy V1.0 beta 3 from 29. August 2011

EAC extraction logfile from 10. May 2014, 23:03

Queensryche / Empire [EMI, DCC Gold, GZS-1138, USA]

Used drive : PIONEER DVD-RW DVR-112D Adapter: 1 ID: 0

Read mode : Secure
Utilize accurate stream : Yes
Defeat audio cache : Yes
Make use of C2 pointers : No

Read offset correction : 48
Overread into Lead-In and Lead-Out : No
Fill up missing offset samples with silence : Yes
Delete leading and trailing silent blocks : No
Null samples used in CRC calculations : Yes
Used interface : Installed external ASPI interface

Used output format : User Defined Encoder
Selected bitrate : 1024 kBit/s
Quality : High
Add ID3 tag : No
Command line compressor : C:\Program Files\Exact Audio Copy\FLAC\FLAC.EXE
Additional command line options : -V -8 -T “Date=%year%” -T “Genre=%genre%” %source%

TOC of the extracted CD

Track | Start | Length | Start sector | End sector
———————————————————
1 | 0:00.32 | 5:35.48 | 32 | 25204
2 | 5:36.05 | 5:42.67 | 25205 | 50921
3 | 11:18.72 | 5:21.35 | 50922 | 75031
4 | 16:40.32 | 7:04.00 | 75032 | 106831
5 | 23:44.32 | 4:29.48 | 106832 | 127054
6 | 28:14.05 | 5:24.12 | 127055 | 151366
7 | 33:38.17 | 4:50.50 | 151367 | 173166
8 | 38:28.67 | 5:47.60 | 173167 | 199251
9 | 44:16.52 | 5:33.00 | 199252 | 224226
10 | 49:49.52 | 5:54.00 | 224227 | 250776
11 | 55:43.52 | 7:41.55 | 250777 | 285406

Range status and errors

Selected range

Filename C:\CDRip by Deminbek\Queensryche – Empire [EMI, DCC Gold, GZS-1138, USA].wav

Peak level 100.0 %
Extraction speed 7.5 X
Range quality 100.0 %
Test CRC 1A823E0A
Copy CRC 1A823E0A
Copy OK

No errors occurred

AccurateRip summary

Track 1 accurately ripped (confidence 10) [E3969A26] (AR v2)
Track 2 accurately ripped (confidence 10) [300EE43A] (AR v2)
Track 3 accurately ripped (confidence 10) [3B4CEDD2] (AR v2)
Track 4 accurately ripped (confidence 10) [8799FA60] (AR v2)
Track 5 accurately ripped (confidence 10) [A51EFF56] (AR v2)
Track 6 accurately ripped (confidence 11) [BBF18777] (AR v2)
Track 7 accurately ripped (confidence 10) [213337E9] (AR v2)
Track 8 accurately ripped (confidence 10) [217A2DB2] (AR v2)
Track 9 accurately ripped (confidence 10) [A7481415] (AR v2)
Track 10 accurately ripped (confidence 10) [409B4533] (AR v2)
Track 11 accurately ripped (confidence 10) [58B7629A] (AR v2)

All tracks accurately ripped

End of status report

—- CUETools DB Plugin V2.1.4

[CTDB TOCID: VLhTM1XPRAAWyVFbd.m4y.YX2qg-] found
Submit result: VLhTM1XPRAAWyVFbd.m4y.YX2qg- has been confirmed
Track | CTDB Status
1 | (5/5) Accurately ripped
2 | (5/5) Accurately ripped
3 | (5/5) Accurately ripped
4 | (5/5) Accurately ripped
5 | (5/5) Accurately ripped
6 | (5/5) Accurately ripped
7 | (5/5) Accurately ripped
8 | (4/5) Accurately ripped
9 | (5/5) Accurately ripped
10 | (5/5) Accurately ripped
11 | (5/5) Accurately ripped

==== Log checksum C4CD1CBE1BF4C11F09509FA42EE2DD551070259BC20C7D19D6973242B0F2DD84 ====

REM GENRE “Heavy Metal”
REM DATE 1990/2000
REM DISCID 870EDD0B
REM COMMENT “ExactAudioCopy v1.0b3”
CATALOG 0000000000000
PERFORMER “Queensryche”
TITLE “Empire (GZS-1138)”
FILE “Queensryche – Empire (GZS-1138).flac” WAVE
TRACK 01 AUDIO
TITLE “Best I Can”
PERFORMER “Queensryche”
INDEX 00 00:00:00
INDEX 01 00:00:32
TRACK 02 AUDIO
TITLE “The Thin Line”
PERFORMER “Queensryche”
INDEX 01 05:36:05
TRACK 03 AUDIO
TITLE “Jet City Woman”
PERFORMER “Queensryche”
INDEX 01 11:18:72
TRACK 04 AUDIO
TITLE “Della Brown”
PERFORMER “Queensryche”
INDEX 01 16:40:32
TRACK 05 AUDIO
TITLE “Another Rainy Night (Without You)”
PERFORMER “Queensryche”
INDEX 01 23:44:32
TRACK 06 AUDIO
TITLE “Empire”
PERFORMER “Queensryche”
INDEX 00 28:11:52
INDEX 01 28:14:05
TRACK 07 AUDIO
TITLE “Resistance”
PERFORMER “Queensryche”
INDEX 00 33:37:37
INDEX 01 33:38:17
TRACK 08 AUDIO
TITLE “Silent Lucidity”
PERFORMER “Queensryche”
INDEX 00 38:26:57
INDEX 01 38:28:67
TRACK 09 AUDIO
TITLE “Hand On Heart”
PERFORMER “Queensryche”
INDEX 00 44:16:00
INDEX 01 44:16:52
TRACK 10 AUDIO
TITLE “One And Only”
PERFORMER “Queensryche”
INDEX 00 49:48:70
INDEX 01 49:49:52
TRACK 11 AUDIO
TITLE “Anybody Listening?”
PERFORMER “Queensryche”
INDEX 01 55:43:52


0

Publication author

offline 13 hours

Chaos

3
Comments: 4Publics: 3418Registration: 02-02-2019
Spread the Download

Leave a Reply

Your email address will not be published. Required fields are marked *

Enter the text from the image below
 

This site uses Akismet to reduce spam. Learn how your comment data is processed.