Queen – Sheer Heart Attack (Remastered)




No Cover available

Artist: Queen
Year: 1974/2011
Genre: Rock
Notes: Discogs
Add. Notes: Remastered
Watch Songs on: YouTube
Cover incl.: Yes
Encoder: FLAC
Bitrate: ~800 kBit/s (44.1 kHz/16 Bit/s)
Log & Cue incl.: Yes
Size: 388,1 MB
Password: “slam” (without ” “)


All Downloads/Hosters are compatible

Download 1
KatFile.com
Turbobit.net
Rapidgator.net
Download 2
KatFile.com
Turbobit.net
Rapidgator.net

Tracklist:

1  Brighton Rock  
2  Killer Queen  
3  Tenement Funster  
4  Flick Of The Wrist  
5  Lily Of The Valley  
6  Now I'm Here  
7  In The Lap Of The Gods  
8  Stone Cold Crazy  
9  Dear Friends  
10  Misfire  
11  Bring Back That Leroy Brown  
12  She Makes Me (Stormtroopers In Stilettos) 
 
13  In The lap Of The Gods...Revisited  
 BONUS EP
1  Now I'm Here (Live At The Hammersmith 
Odeon, December 1975)  
2  Flick Of The Wrist (BBC Session, October 1974) 
 
3  Tenement Funster (BBC Session, October 
1974)  
4  Bring Back That Leroy Brown (A Capella Mix 
2011)  
5  In The Lap Of The Gods...Revisited (Live At 
Wembley Stadium, July 1986)

EAC-Log, CUE-Sheed & NFO:

Click to open spoiler
Exact Audio Copy V1.0 beta 1 from 15. November 2010

EAC extraction logfile from 15. March 2011, 21:53

Queen / Sheer Heart Attack

Used drive : Optiarc DVD RW AD-7590S Adapter: 2 ID: 0

Read mode : Secure
Utilize accurate stream : Yes
Defeat audio cache : Yes
Make use of C2 pointers : No

Read offset correction : 48
Overread into Lead-In and Lead-Out : No
Fill up missing offset samples with silence : Yes
Delete leading and trailing silent blocks : No
Null samples used in CRC calculations : Yes
Used interface : Native Win32 interface for Win NT & 2000
Gap handling : Appended to previous track

Used output format : User Defined Encoder
Selected bitrate : 768 kBit/s
Quality : High
Add ID3 tag : No
Command line compressor : C:\Program Files\Exact Audio Copy\Flac\flac.exe
Additional command line options : -8 -V -T “ARTIST=%a” -T “TITLE=%t” -T “ALBUM=%g” -T “DATE=%y” -T “TRACKNUMBER=%n” -T “TOTALTRACKS=%x” -T “GENRE=%m” -T “ALBUMARTIST=%v” -T “ALBUM ARTIST=%v” -T “COMMENT=EAC Secure Mode, Test & Copy, AccurateRip, FLAC -8” %s

TOC of the extracted CD

Track | Start | Length | Start sector | End sector
———————————————————
1 | 0:00.00 | 5:11.17 | 0 | 23341
2 | 5:11.17 | 3:00.65 | 23342 | 36906
3 | 8:12.07 | 2:46.64 | 36907 | 49420
4 | 10:58.71 | 3:17.22 | 49421 | 64217
5 | 14:16.18 | 1:44.67 | 64218 | 72084
6 | 16:01.10 | 4:18.12 | 72085 | 91446
7 | 20:19.22 | 3:22.46 | 91447 | 106642
8 | 23:41.68 | 2:16.36 | 106643 | 116878
9 | 25:58.29 | 1:08.63 | 116879 | 122041
10 | 27:07.17 | 1:49.49 | 122042 | 130265
11 | 28:56.66 | 2:15.23 | 130266 | 140413
12 | 31:12.14 | 4:09.15 | 140414 | 159103
13 | 35:21.29 | 3:46.61 | 159104 | 176114

Track 1

Filename C:\Addis Gugsa Is Ethiopian\01 – Brighton Rock.wav

Pre-gap length 0:00:02.00

Peak level 99.2 %
Extraction speed 2.9 X
Track quality 100.0 %
Test CRC 12D33161
Copy CRC 12D33161
Track not present in AccurateRip database
Copy OK

Track 2

Filename C:\Addis Gugsa Is Ethiopian\02 – Killer Queen.wav

Pre-gap length 0:00:01.16

Peak level 94.0 %
Extraction speed 3.0 X
Track quality 100.0 %
Test CRC FEDE6D12
Copy CRC FEDE6D12
Track not present in AccurateRip database
Copy OK

Track 3

Filename C:\Addis Gugsa Is Ethiopian\03 – Tenement Funster.wav

Pre-gap length 0:00:01.20

Peak level 100.0 %
Extraction speed 3.1 X
Track quality 100.0 %
Test CRC 565579E4
Copy CRC 565579E4
Track not present in AccurateRip database
Copy OK

Track 4

Filename C:\Addis Gugsa Is Ethiopian\04 – Flick Of The Wrist.wav

Peak level 99.4 %
Extraction speed 3.4 X
Track quality 100.0 %
Test CRC 1CFA674B
Copy CRC 1CFA674B
Track not present in AccurateRip database
Copy OK

Track 5

Filename C:\Addis Gugsa Is Ethiopian\05 – Lily Of The Valley.wav

Peak level 99.3 %
Extraction speed 3.0 X
Track quality 100.0 %
Test CRC 8C20B990
Copy CRC 8C20B990
Track not present in AccurateRip database
Copy OK

Track 6

Filename C:\Addis Gugsa Is Ethiopian\06 – Now I’m Here.wav

Peak level 99.5 %
Extraction speed 3.8 X
Track quality 100.0 %
Test CRC 0EBDDBE5
Copy CRC 0EBDDBE5
Track not present in AccurateRip database
Copy OK

Track 7

Filename C:\Addis Gugsa Is Ethiopian\07 – In The Lap Of The Gods.wav

Pre-gap length 0:00:05.17

Peak level 99.4 %
Extraction speed 3.8 X
Track quality 100.0 %
Test CRC 73A83B32
Copy CRC 73A83B32
Track not present in AccurateRip database
Copy OK

Track 8

Filename C:\Addis Gugsa Is Ethiopian\08 – Stone Cold Crazy.wav

Peak level 99.6 %
Extraction speed 2.7 X
Track quality 99.9 %
Test CRC B51B7036
Copy CRC B51B7036
Track not present in AccurateRip database
Copy OK

Track 9

Filename C:\Addis Gugsa Is Ethiopian\09 – Dear Friends.wav

Pre-gap length 0:00:02.50

Peak level 89.9 %
Extraction speed 3.1 X
Track quality 100.0 %
Test CRC F61A95AE
Copy CRC F61A95AE
Track not present in AccurateRip database
Copy OK

Track 10

Filename C:\Addis Gugsa Is Ethiopian\10 – Misfire.wav

Pre-gap length 0:00:01.20

Peak level 99.1 %
Extraction speed 3.6 X
Track quality 100.0 %
Test CRC 615161EC
Copy CRC 615161EC
Track not present in AccurateRip database
Copy OK

Track 11

Filename C:\Addis Gugsa Is Ethiopian\11 – Bring Back That Leroy Brown.wav

Peak level 96.0 %
Extraction speed 3.7 X
Track quality 100.0 %
Test CRC CFB7A9A2
Copy CRC CFB7A9A2
Track not present in AccurateRip database
Copy OK

Track 12

Filename C:\Addis Gugsa Is Ethiopian\12 – She Makes Me (Stormtrooper In Stilettos).wav

Peak level 95.5 %
Extraction speed 4.5 X
Track quality 100.0 %
Test CRC A203F3DE
Copy CRC A203F3DE
Track not present in AccurateRip database
Copy OK

Track 13

Filename C:\Addis Gugsa Is Ethiopian\13 – In The Lap Of The Gods … Revisited.wav

Peak level 97.8 %
Extraction speed 3.7 X
Track quality 99.9 %
Test CRC D89117CB
Copy CRC D89117CB
Track not present in AccurateRip database
Copy OK

None of the tracks are present in the AccurateRip database

No errors occurred

End of status report

==== Log checksum 3C9CC97D321A1B37A57DA8C1326CDF706ECF24C182CB49B34DBCD7509AC99E18 ====

Exact Audio Copy V1.0 beta 1 from 15. November 2010

EAC extraction logfile from 15. March 2011, 22:37

Queen / Sheer Heart Attack (Bonus EP)

Used drive : Optiarc DVD RW AD-7590S Adapter: 2 ID: 0

Read mode : Secure
Utilize accurate stream : Yes
Defeat audio cache : Yes
Make use of C2 pointers : No

Read offset correction : 48
Overread into Lead-In and Lead-Out : No
Fill up missing offset samples with silence : Yes
Delete leading and trailing silent blocks : No
Null samples used in CRC calculations : Yes
Used interface : Native Win32 interface for Win NT & 2000
Gap handling : Appended to previous track

Used output format : User Defined Encoder
Selected bitrate : 768 kBit/s
Quality : High
Add ID3 tag : No
Command line compressor : C:\Program Files\Exact Audio Copy\Flac\flac.exe
Additional command line options : -8 -V -T “ARTIST=%a” -T “TITLE=%t” -T “ALBUM=%g” -T “DATE=%y” -T “TRACKNUMBER=%n” -T “TOTALTRACKS=%x” -T “GENRE=%m” -T “ALBUMARTIST=%v” -T “ALBUM ARTIST=%v” -T “COMMENT=EAC Secure Mode, Test & Copy, AccurateRip, FLAC -8” %s

TOC of the extracted CD

Track | Start | Length | Start sector | End sector
———————————————————
1 | 0:00.00 | 4:27.40 | 0 | 20064
2 | 4:27.40 | 3:26.57 | 20065 | 35571
3 | 7:54.22 | 2:59.48 | 35572 | 49044
4 | 10:53.70 | 2:18.37 | 49045 | 59431
5 | 13:12.32 | 2:35.63 | 59432 | 71119

Track 1

Filename C:\Addis Gugsa Is Ethiopian\01 – Now I’m Here (Live At Hammersmith Odeon – December 1975).wav

Pre-gap length 0:00:02.00

Peak level 100.0 %
Extraction speed 2.8 X
Track quality 100.0 %
Test CRC 7E8F4496
Copy CRC 7E8F4496
Track not present in AccurateRip database
Copy OK

Track 2

Filename C:\Addis Gugsa Is Ethiopian\02 – Flick Of The Wrist (BBC Session – October 1974).wav

Pre-gap length 0:00:02.10

Peak level 100.0 %
Extraction speed 3.0 X
Track quality 100.0 %
Test CRC 235E89F6
Copy CRC 235E89F6
Track not present in AccurateRip database
Copy OK

Track 3

Filename C:\Addis Gugsa Is Ethiopian\03 – Tenement Funster (BBC Session – October 1974).wav

Pre-gap length 0:00:01.64

Peak level 100.0 %
Extraction speed 2.5 X
Track quality 99.9 %
Test CRC 38B12BF1
Copy CRC 38B12BF1
Track not present in AccurateRip database
Copy OK

Track 4

Filename C:\Addis Gugsa Is Ethiopian\04 – Bring Back That Leroy Brown (A Capella Mix 2011).wav

Pre-gap length 0:00:01.24

Peak level 99.6 %
Extraction speed 2.4 X
Track quality 99.9 %
Test CRC 2A978C57
Copy CRC 2A978C57
Track not present in AccurateRip database
Copy OK

Track 5

Filename C:\Addis Gugsa Is Ethiopian\05 – In The Lap Of The Gods… Revisited (Live At Wembley Stadium 1986).wav

Pre-gap length 0:00:01.18

Peak level 100.0 %
Extraction speed 3.4 X
Track quality 100.0 %
Test CRC DF5B39A5
Copy CRC DF5B39A5
Track not present in AccurateRip database
Copy OK

None of the tracks are present in the AccurateRip database

No errors occurred

End of status report

==== Log checksum 8DB8E34D23AB980B0FF2C483F0655EFED9DA1660B2268BB2B84C45AB75092C75 ====

REM GENRE Rock
REM DATE 1974
REM DISCID AA092C0D
REM COMMENT “ExactAudioCopy v1.0b1”
PERFORMER “Queen”
TITLE “Sheer Heart Attack”
FILE “01 – Brighton Rock.wav” WAVE
TRACK 01 AUDIO
TITLE “Brighton Rock”
PERFORMER “Queen”
INDEX 01 00:00:00
TRACK 02 AUDIO
TITLE “Killer Queen”
PERFORMER “Queen”
INDEX 00 05:10:01
FILE “02 – Killer Queen.wav” WAVE
INDEX 01 00:00:00
TRACK 03 AUDIO
TITLE “Tenement Funster”
PERFORMER “Queen”
INDEX 00 02:59:45
FILE “03 – Tenement Funster.wav” WAVE
INDEX 01 00:00:00
FILE “04 – Flick Of The Wrist.wav” WAVE
TRACK 04 AUDIO
TITLE “Flick Of The Wrist”
PERFORMER “Queen”
INDEX 01 00:00:00
FILE “05 – Lily Of The Valley.wav” WAVE
TRACK 05 AUDIO
TITLE “Lily Of The Valley”
PERFORMER “Queen”
INDEX 01 00:00:00
FILE “06 – Now I’m Here.wav” WAVE
TRACK 06 AUDIO
TITLE “Now I’m Here”
PERFORMER “Queen”
INDEX 01 00:00:00
TRACK 07 AUDIO
TITLE “In The Lap Of The Gods”
PERFORMER “Queen”
INDEX 00 04:12:70
FILE “07 – In The Lap Of The Gods.wav” WAVE
INDEX 01 00:00:00
FILE “08 – Stone Cold Crazy.wav” WAVE
TRACK 08 AUDIO
TITLE “Stone Cold Crazy”
PERFORMER “Queen”
INDEX 01 00:00:00
TRACK 09 AUDIO
TITLE “Dear Friends”
PERFORMER “Queen”
INDEX 00 02:13:61
FILE “09 – Dear Friends.wav” WAVE
INDEX 01 00:00:00
TRACK 10 AUDIO
TITLE “Misfire”
PERFORMER “Queen”
INDEX 00 01:07:43
FILE “10 – Misfire.wav” WAVE
INDEX 01 00:00:00
FILE “11 – Bring Back That Leroy Brown.wav” WAVE
TRACK 11 AUDIO
TITLE “Bring Back That Leroy Brown”
PERFORMER “Queen”
INDEX 01 00:00:00
FILE “12 – She Makes Me (Stormtrooper In Stilettos).wav” WAVE
TRACK 12 AUDIO
TITLE “She Makes Me (Stormtrooper In Stilettos)”
PERFORMER “Queen”
INDEX 01 00:00:00
FILE “13 – In The Lap Of The Gods … Revisited.wav” WAVE
TRACK 13 AUDIO
TITLE “In The Lap Of The Gods … Revisited”
PERFORMER “Queen”
INDEX 01 00:00:00

REM GENRE Rock
REM DATE 1974
REM DISCID 4803B405
REM COMMENT “ExactAudioCopy v1.0b1”
PERFORMER “Queen”
TITLE “Sheer Heart Attack (Bonus EP)”
FILE “01 – Now I’m Here (Live At Hammersmith Odeon – December 1975).wav” WAVE
TRACK 01 AUDIO
TITLE “Now I’m Here (Live At Hammersmith Odeon – December 1975)”
PERFORMER “Queen”
INDEX 01 00:00:00
TRACK 02 AUDIO
TITLE “Flick Of The Wrist (BBC Session – October 1974)”
PERFORMER “Queen”
INDEX 00 04:25:30
FILE “02 – Flick Of The Wrist (BBC Session – October 1974).wav” WAVE
INDEX 01 00:00:00
TRACK 03 AUDIO
TITLE “Tenement Funster (BBC Session – October 1974)”
PERFORMER “Queen”
INDEX 00 03:24:68
FILE “03 – Tenement Funster (BBC Session – October 1974).wav” WAVE
INDEX 01 00:00:00
TRACK 04 AUDIO
TITLE “Bring Back That Leroy Brown (A Capella Mix 2011)”
PERFORMER “Queen”
INDEX 00 02:58:24
FILE “04 – Bring Back That Leroy Brown (A Capella Mix 2011).wav” WAVE
INDEX 01 00:00:00
TRACK 05 AUDIO
TITLE “In The Lap Of The Gods… Revisited (Live At Wembley Stadium 1986)”
PERFORMER “Queen”
INDEX 00 02:17:19
FILE “05 – In The Lap Of The Gods… Revisited (Live At Wembley Stadium 1986).wav” WAVE
INDEX 01 00:00:00


Leave a Reply

Your email address will not be published. Required fields are marked *

Enter the text from the image below
 

This site uses Akismet to reduce spam. Learn how your comment data is processed.