Queen – Queen (Remastered)




[Total: 0    Average: 0/5]

Artist: Queen
Year: 1973/2011
Genre: Rock
Notes: Discogs
Add. Notes: Remastered
Encoder: FLAC
Bitrate: ~900 kBit/s (44.1 kHz/16 Bit/s)
Size: 469,5 MB
Password: “slam” (without ” “)


http://www.share-online.biz/dl/7RC521RPVBV
https://rapidgator.net/file/c5869b5c2122d47ca5d13adaa29a9738
https://ayefiles.com/jqsfhy7eqa5s/Que-1973-Que2011Rem.rar.html
https://hitfile.net/t9dNs3V

Onlinestatus: Share-online.biz Rapidgator.net AyeFiles.com Hitfile.net

Tracklist:

1-1 	Keep Yourself Alive 	
1-2 	Doing All Right 	
1-3 	Great King Rat 	
1-4 	My Fairy King 	
1-5 	Liar 	
1-6 	The Night Comes Down 	
1-7 	Modern Times Rock 'n' Roll 	
1-8 	Son And Daughter 	
1-9 	Jesus 	
1-10 	Seven Seas Of Rhye 	
	Bonus EP
2-1 	Keep Yourself Alive (De Lane Lea Demo, 
December 1971) 	
2-2 	The Night Comes Down (De Lane Lea Demo, 
December 1971) 	
2-3 	Great King Rat (De Lane Lea Demo, December 
1971) 	
2-4 	Jesus (De Lane Lea Demo, December 1971) 
	
2-5 	Liar (De Lane Lea Demo, December 1971) 
	
2-6 	Mad The Swine (June 1972)

EAC-Log, CUE-Sheed & NFO:

Click to open spoiler
Exact Audio Copy V1.0 beta 1 from 15. November 2010

EAC extraction logfile from 16. March 2011, 18:44

Queen / Queen (2011 Deluxe Edition – Disc 1)

Used drive : PLEXTOR CD-R PREMIUM Adapter: 2 ID: 0

Read mode : Secure
Utilize accurate stream : Yes
Defeat audio cache : Yes
Make use of C2 pointers : No

Read offset correction : 30
Overread into Lead-In and Lead-Out : Yes
Fill up missing offset samples with silence : Yes
Delete leading and trailing silent blocks : No
Null samples used in CRC calculations : Yes
Used interface : Native Win32 interface for Win NT & 2000
Gap handling : Appended to previous track

Used output format : User Defined Encoder
Selected bitrate : 896 kBit/s
Quality : High
Add ID3 tag : No
Command line compressor : E:\Program Files (x86)\Exact Audio Copy\Flac\flac.exe
Additional command line options : -8 -V -T “ARTIST=%a” -T “TITLE=%t” -T “ALBUM=%g” -T “DATE=%y” -T “TRACKNUMBER=%n” -T “TOTALTRACKS=%x” -T “GENRE=%m” -T “ALBUMARTIST=%v” -T “ALBUM ARTIST=%v” -T “COMMENT=EAC Secure Mode, Test & Copy, AccurateRip, FLAC -8” %s

TOC of the extracted CD

Track | Start | Length | Start sector | End sector
———————————————————
1 | 0:00.00 | 3:47.35 | 0 | 17059
2 | 3:47.35 | 4:09.16 | 17060 | 35750
3 | 7:56.51 | 5:42.66 | 35751 | 61466
4 | 13:39.42 | 4:13.07 | 61467 | 80448
5 | 17:52.49 | 6:25.22 | 80449 | 109345
6 | 24:17.71 | 4:23.02 | 109346 | 129072
7 | 28:40.73 | 1:48.13 | 129073 | 137185
8 | 30:29.11 | 3:23.12 | 137186 | 152422
9 | 33:52.23 | 3:44.13 | 152423 | 169235
10 | 37:36.36 | 1:16.43 | 169236 | 174978

Track 1

Filename R:\EAC Rips\01 – Keep Yourself Alive.wav

Pre-gap length 0:00:02.00

Peak level 99.6 %
Extraction speed 3.9 X
Track quality 99.9 %
Test CRC 1ECC90D9
Copy CRC 1ECC90D9
Track not present in AccurateRip database
Copy OK

Track 2

Filename R:\EAC Rips\02 – Doing All Right.wav

Peak level 99.4 %
Extraction speed 5.5 X
Track quality 100.0 %
Test CRC B623FD17
Copy CRC B623FD17
Track not present in AccurateRip database
Copy OK

Track 3

Filename R:\EAC Rips\03 – Great King Rat.wav

Peak level 99.3 %
Extraction speed 6.2 X
Track quality 100.0 %
Test CRC DFC9FD82
Copy CRC DFC9FD82
Track not present in AccurateRip database
Copy OK

Track 4

Filename R:\EAC Rips\04 – My Fairy King.wav

Peak level 100.0 %
Extraction speed 6.5 X
Track quality 100.0 %
Test CRC BEAD2AAA
Copy CRC BEAD2AAA
Track not present in AccurateRip database
Copy OK

Track 5

Filename R:\EAC Rips\05 – Liar.wav

Pre-gap length 0:00:04.81

Peak level 100.0 %
Extraction speed 7.4 X
Track quality 100.0 %
Test CRC 599C8D8A
Copy CRC 599C8D8A
Track not present in AccurateRip database
Copy OK

Track 6

Filename R:\EAC Rips\06 – The Night Comes Down.wav

Pre-gap length 0:00:01.38

Peak level 100.0 %
Extraction speed 7.6 X
Track quality 100.0 %
Test CRC C951E7A4
Copy CRC C951E7A4
Track not present in AccurateRip database
Copy OK

Track 7

Filename R:\EAC Rips\07 – Modern Times Rock ‘N’ Roll.wav

Peak level 99.5 %
Extraction speed 6.8 X
Track quality 100.0 %
Test CRC E0248911
Copy CRC E0248911
Track not present in AccurateRip database
Copy OK

Track 8

Filename R:\EAC Rips\08 – Son And Daughter.wav

Peak level 100.0 %
Extraction speed 7.7 X
Track quality 100.0 %
Test CRC 88EB5033
Copy CRC 88EB5033
Track not present in AccurateRip database
Copy OK

Track 9

Filename R:\EAC Rips\09 – Jesus.wav

Pre-gap length 0:00:03.62

Peak level 100.0 %
Extraction speed 8.0 X
Track quality 100.0 %
Test CRC AE6D0B2A
Copy CRC AE6D0B2A
Track not present in AccurateRip database
Copy OK

Track 10

Filename R:\EAC Rips\10 – Seven Seas Of Rhye.wav

Peak level 98.8 %
Extraction speed 9.1 X
Track quality 100.0 %
Test CRC E4B82DD5
Copy CRC E4B82DD5
Track not present in AccurateRip database
Copy OK

None of the tracks are present in the AccurateRip database

No errors occurred

End of status report

==== Log checksum 30D98E11D65E113434D80B9E8992AB1F6F301673A5C9C0B566D030AE9EC81FD1 ====

Exact Audio Copy V1.0 beta 1 from 15. November 2010

EAC extraction logfile from 16. March 2011, 19:08

Queen / Queen (2011 Deluxe Edition – Bonus EP)

Used drive : PLEXTOR CD-R PREMIUM Adapter: 2 ID: 0

Read mode : Secure
Utilize accurate stream : Yes
Defeat audio cache : Yes
Make use of C2 pointers : No

Read offset correction : 30
Overread into Lead-In and Lead-Out : Yes
Fill up missing offset samples with silence : Yes
Delete leading and trailing silent blocks : No
Null samples used in CRC calculations : Yes
Used interface : Native Win32 interface for Win NT & 2000
Gap handling : Appended to previous track

Used output format : User Defined Encoder
Selected bitrate : 896 kBit/s
Quality : High
Add ID3 tag : No
Command line compressor : E:\Program Files (x86)\Exact Audio Copy\Flac\flac.exe
Additional command line options : -8 -V -T “ARTIST=%a” -T “TITLE=%t” -T “ALBUM=%g” -T “DATE=%y” -T “TRACKNUMBER=%n” -T “TOTALTRACKS=%x” -T “GENRE=%m” -T “ALBUMARTIST=%v” -T “ALBUM ARTIST=%v” -T “COMMENT=EAC Secure Mode, Test & Copy, AccurateRip, FLAC -8” %s

TOC of the extracted CD

Track | Start | Length | Start sector | End sector
———————————————————
1 | 0:00.00 | 3:51.52 | 0 | 17376
2 | 3:51.52 | 4:24.48 | 17377 | 37224
3 | 8:16.25 | 6:09.32 | 37225 | 64931
4 | 14:25.57 | 5:06.55 | 64932 | 87936
5 | 19:32.37 | 7:54.40 | 87937 | 123526
6 | 27:27.02 | 3:22.49 | 123527 | 138725

Track 1

Filename R:\EAC Rips\01 – Keep Yourself Alive (De Lane Lea Demo).wav

Pre-gap length 0:00:02.00

Peak level 100.0 %
Extraction speed 4.9 X
Track quality 100.0 %
Test CRC 6D41B2EE
Copy CRC 6D41B2EE
Track not present in AccurateRip database
Copy OK

Track 2

Filename R:\EAC Rips\02 – The Night Comes Down (De Lane Lea Demo).wav

Pre-gap length 0:00:01.52

Peak level 99.8 %
Extraction speed 4.6 X
Track quality 99.9 %
Test CRC EF769E33
Copy CRC EF769E33
Track not present in AccurateRip database
Copy OK

Track 3

Filename R:\EAC Rips\03 – Great King Rat (De Lane Lea Demo).wav

Pre-gap length 0:00:02.08

Peak level 100.0 %
Extraction speed 6.5 X
Track quality 100.0 %
Test CRC FB360737
Copy CRC FB360737
Track not present in AccurateRip database
Copy OK

Track 4

Filename R:\EAC Rips\04 – Jesus (De Lane Lea Demo).wav

Pre-gap length 0:00:01.74

Peak level 99.8 %
Extraction speed 7.0 X
Track quality 100.0 %
Test CRC 41D33C78
Copy CRC 41D33C78
Track not present in AccurateRip database
Copy OK

Track 5

Filename R:\EAC Rips\05 – Liar (De Lane Lea Demo).wav

Pre-gap length 0:00:02.00

Peak level 100.0 %
Extraction speed 6.9 X
Track quality 99.9 %
Test CRC B54000D1
Copy CRC B54000D1
Track not present in AccurateRip database
Copy OK

Track 6

Filename R:\EAC Rips\06 – Mad The Swine.wav

Pre-gap length 0:00:02.30

Peak level 100.0 %
Extraction speed 8.9 X
Track quality 100.0 %
Test CRC 7F480153
Copy CRC 7F480153
Track not present in AccurateRip database
Copy OK

None of the tracks are present in the AccurateRip database

No errors occurred

End of status report

==== Log checksum D32D6007481B661F62D0B0046E09545622C16BB3443CF18FAC01B81ED751FEB0 ====

REM GENRE Rock
REM DATE 1973
REM DISCID 7F091D0A
REM COMMENT “ExactAudioCopy v1.0b1”
PERFORMER “Queen”
TITLE “Queen (2011 Deluxe Edition – Disc 1)”
FILE “01 – Keep Yourself Alive.wav” WAVE
TRACK 01 AUDIO
TITLE “Keep Yourself Alive”
PERFORMER “Queen”
INDEX 01 00:00:00
FILE “02 – Doing All Right.wav” WAVE
TRACK 02 AUDIO
TITLE “Doing All Right”
PERFORMER “Queen”
INDEX 01 00:00:00
FILE “03 – Great King Rat.wav” WAVE
TRACK 03 AUDIO
TITLE “Great King Rat”
PERFORMER “Queen”
INDEX 01 00:00:00
FILE “04 – My Fairy King.wav” WAVE
TRACK 04 AUDIO
TITLE “My Fairy King”
PERFORMER “Queen”
INDEX 01 00:00:00
TRACK 05 AUDIO
TITLE “Liar”
PERFORMER “Queen”
INDEX 00 04:08:21
FILE “05 – Liar.wav” WAVE
INDEX 01 00:00:00
TRACK 06 AUDIO
TITLE “The Night Comes Down”
PERFORMER “Queen”
INDEX 00 06:23:68
FILE “06 – The Night Comes Down.wav” WAVE
INDEX 01 00:00:00
FILE “07 – Modern Times Rock ‘N’ Roll.wav” WAVE
TRACK 07 AUDIO
TITLE “Modern Times Rock ‘N’ Roll”
PERFORMER “Queen”
INDEX 01 00:00:00
FILE “08 – Son And Daughter.wav” WAVE
TRACK 08 AUDIO
TITLE “Son And Daughter”
PERFORMER “Queen”
INDEX 01 00:00:00
TRACK 09 AUDIO
TITLE “Jesus”
PERFORMER “Queen”
INDEX 00 03:19:40
FILE “09 – Jesus.wav” WAVE
INDEX 01 00:00:00
FILE “10 – Seven Seas Of Rhye.wav” WAVE
TRACK 10 AUDIO
TITLE “Seven Seas Of Rhye”
PERFORMER “Queen”
INDEX 01 00:00:00

REM GENRE “Hard Rock”
REM DATE 1973
REM DISCID 55073906
REM COMMENT “ExactAudioCopy v1.0b1”
PERFORMER “Queen”
TITLE “Queen (2011 Deluxe Edition – Bonus EP)”
FILE “01 – Keep Yourself Alive (De Lane Lea Demo).wav” WAVE
TRACK 01 AUDIO
TITLE “Keep Yourself Alive (De Lane Lea Demo)”
PERFORMER “Queen”
INDEX 01 00:00:00
TRACK 02 AUDIO
TITLE “The Night Comes Down (De Lane Lea Demo)”
PERFORMER “Queen”
INDEX 00 03:50:13
FILE “02 – The Night Comes Down (De Lane Lea Demo).wav” WAVE
INDEX 01 00:00:00
TRACK 03 AUDIO
TITLE “Great King Rat (De Lane Lea Demo)”
PERFORMER “Queen”
INDEX 00 04:22:42
FILE “03 – Great King Rat (De Lane Lea Demo).wav” WAVE
INDEX 01 00:00:00
TRACK 04 AUDIO
TITLE “Jesus (De Lane Lea Demo)”
PERFORMER “Queen”
INDEX 00 06:07:51
FILE “04 – Jesus (De Lane Lea Demo).wav” WAVE
INDEX 01 00:00:00
TRACK 05 AUDIO
TITLE “Liar (De Lane Lea Demo)”
PERFORMER “Queen”
INDEX 00 05:04:55
FILE “05 – Liar (De Lane Lea Demo).wav” WAVE
INDEX 01 00:00:00
TRACK 06 AUDIO
TITLE “Mad The Swine”
PERFORMER “Queen”
INDEX 00 07:52:17
FILE “06 – Mad The Swine.wav” WAVE
INDEX 01 00:00:00

Spread the Download

Leave a Reply

Your email address will not be published. Required fields are marked *

Enter the text from the image below
 

This site uses Akismet to reduce spam. Learn how your comment data is processed.