Queen – Queen II (Remastered)




No Cover available

Artist: Queen
Year: 1974/2011
Genre: Rock
Notes: Discogs
Add. Notes: Remastered
Watch Songs on: YouTube
Cover incl.: No
Encoder: FLAC
Bitrate: ~900 kBit/s (44.1 kHz/16 Bit/s)
Log & Cue incl.: No, but seperate Tracks
Size: 409,8 MB
Password: “slam” (without ” “)


All Downloads/Hosters are compatible

Download 1
KatFile.com
Turbobit.net
Rapidgator.net
Download 2
KatFile.com
Turbobit.net
Rapidgator.net

Tracklist:

1-1 - Procession - 1:13
1-2 - Father To Son - 6:13
1-3 - White Queen (As It Began) - 4:35
1-4 - Some Day One Day - 4:22
1-5 - The Loser In The End - 4:06
1-6 - Ogre Battle - 4:08
1-7 - The Fairy Feller's Master-Stroke - 2:40
1-8 - Nevermore - 1:18
1-9 - The March Of The Black Queen - 6:32
1-10 - Funny How Love Is - 2:51
1-11 - Seven Seas Of Rhye - 2:48
Bonus EP
2-1 - See What A Fool I've Been (BBC Session, July 
1973 - Remix 2011) - 4:22
2-2 - White Queen (As It Began) (Live At Hammersmith 
Odeon, December 1975) - 5:34
2-3 - Seven Seas Of Rhye (Instrumental Mix 2011) - 3:10
2-4 - Nevermore (BBC Session, April 1974) - 1:29
2-5 - See What A Fool I've Been (B-Side Version, 
February 1974) - 4:31

EAC-Log, CUE-Sheed & NFO:

Click to open spoiler
Exact Audio Copy V1.0 beta 1 from 15. November 2010

EAC extraction logfile from 15. March 2011, 20:52

Queen / Queen II

Used drive : Optiarc DVD RW AD-7590S Adapter: 2 ID: 0

Read mode : Secure
Utilize accurate stream : Yes
Defeat audio cache : Yes
Make use of C2 pointers : No

Read offset correction : 48
Overread into Lead-In and Lead-Out : No
Fill up missing offset samples with silence : Yes
Delete leading and trailing silent blocks : No
Null samples used in CRC calculations : Yes
Used interface : Native Win32 interface for Win NT & 2000
Gap handling : Appended to previous track

Used output format : User Defined Encoder
Selected bitrate : 768 kBit/s
Quality : High
Add ID3 tag : No
Command line compressor : C:\Program Files\Exact Audio Copy\Flac\flac.exe
Additional command line options : -8 -V -T “ARTIST=%a” -T “TITLE=%t” -T “ALBUM=%g” -T “DATE=%y” -T “TRACKNUMBER=%n” -T “TOTALTRACKS=%x” -T “GENRE=%m” -T “ALBUMARTIST=%v” -T “ALBUM ARTIST=%v” -T “COMMENT=EAC Secure Mode, Test & Copy, AccurateRip, FLAC -8” %s

TOC of the extracted CD

Track | Start | Length | Start sector | End sector
———————————————————
1 | 0:00.00 | 1:13.10 | 0 | 5484
2 | 1:13.10 | 6:13.64 | 5485 | 33523
3 | 7:26.74 | 4:35.46 | 33524 | 54194
4 | 12:02.45 | 4:22.15 | 54195 | 73859
5 | 16:24.60 | 4:06.14 | 73860 | 92323
6 | 20:30.74 | 4:08.34 | 92324 | 110957
7 | 24:39.33 | 2:40.74 | 110958 | 123031
8 | 27:20.32 | 1:18.50 | 123032 | 128931
9 | 28:39.07 | 6:32.71 | 128932 | 158402
10 | 35:12.03 | 2:51.01 | 158403 | 171228
11 | 38:03.04 | 2:48.73 | 171229 | 183901

Track 1

Filename C:\Addis Gugsa Is Ethiopian\01 – Procession.wav

Pre-gap length 0:00:02.00

Peak level 48.8 %
Extraction speed 0.8 X
Track quality 100.0 %
Test CRC 03C2676A
Copy CRC 03C2676A
Track not present in AccurateRip database
Copy OK

Track 2

Filename C:\Addis Gugsa Is Ethiopian\02 – Father To Son.wav

Peak level 94.5 %
Extraction speed 1.3 X
Track quality 100.0 %
Test CRC F6F47D98
Copy CRC F6F47D98
Track not present in AccurateRip database
Copy OK

Track 3

Filename C:\Addis Gugsa Is Ethiopian\03 – White Queen (As It Began).wav

Peak level 99.8 %
Extraction speed 1.2 X
Track quality 99.9 %
Test CRC 1D6E8D05
Copy CRC 1D6E8D05
Track not present in AccurateRip database
Copy OK

Track 4

Filename C:\Addis Gugsa Is Ethiopian\04 – Some Day One Day.wav

Pre-gap length 0:00:02.31

Peak level 99.9 %
Extraction speed 1.5 X
Track quality 100.0 %
Test CRC 05E54A4C
Copy CRC 05E54A4C
Track not present in AccurateRip database
Copy OK

Track 5

Filename C:\Addis Gugsa Is Ethiopian\05 – The Loser In The End.wav

Peak level 100.0 %
Extraction speed 1.6 X
Track quality 100.0 %
Test CRC DD75C759
Copy CRC DD75C759
Track not present in AccurateRip database
Copy OK

Track 6

Filename C:\Addis Gugsa Is Ethiopian\06 – Ogre Battle.wav

Pre-gap length 0:00:05.00

Peak level 100.0 %
Extraction speed 1.7 X
Track quality 100.0 %
Test CRC A56E03AB
Copy CRC A56E03AB
Track not present in AccurateRip database
Copy OK

Track 7

Filename C:\Addis Gugsa Is Ethiopian\07 – The Fairy Feller’s Master-Stroke.wav

Peak level 100.0 %
Extraction speed 1.6 X
Track quality 100.0 %
Test CRC 5369D582
Copy CRC 5369D582
Track not present in AccurateRip database
Copy OK

Track 8

Filename C:\Addis Gugsa Is Ethiopian\08 – Nevermore.wav

Peak level 100.0 %
Extraction speed 1.0 X
Track quality 99.8 %
Test CRC 35DD37F0
Copy CRC 35DD37F0
Track not present in AccurateRip database
Copy OK

Track 9

Filename C:\Addis Gugsa Is Ethiopian\09 – The March Of The Black Queen.wav

Peak level 100.0 %
Extraction speed 2.0 X
Track quality 100.0 %
Test CRC 9102AF5B
Copy CRC 9102AF5B
Track not present in AccurateRip database
Copy OK

Track 10

Filename C:\Addis Gugsa Is Ethiopian\10 – Funny How Love Is.wav

Peak level 100.0 %
Extraction speed 1.5 X
Track quality 99.9 %
Test CRC 96E54671
Copy CRC 96E54671
Track not present in AccurateRip database
Copy OK

Track 11

Filename C:\Addis Gugsa Is Ethiopian\11 – Seven Seas Of Rhye.wav

Pre-gap length 0:00:01.19

Peak level 100.0 %
Extraction speed 1.9 X
Track quality 100.0 %
Test CRC 3DF37537
Copy CRC 3DF37537
Track not present in AccurateRip database
Copy OK

None of the tracks are present in the AccurateRip database

No errors occurred

End of status report

==== Log checksum F646A59297018BEE7CB6970FBEBA596E49D06CC2438FD95C30D3327DF74BE19C ====

Exact Audio Copy V1.0 beta 1 from 15. November 2010

EAC extraction logfile from 15. March 2011, 21:13

Queen / Queen II Bonus EP

Used drive : Optiarc DVD RW AD-7590S Adapter: 2 ID: 0

Read mode : Secure
Utilize accurate stream : Yes
Defeat audio cache : Yes
Make use of C2 pointers : No

Read offset correction : 48
Overread into Lead-In and Lead-Out : No
Fill up missing offset samples with silence : Yes
Delete leading and trailing silent blocks : No
Null samples used in CRC calculations : Yes
Used interface : Native Win32 interface for Win NT & 2000
Gap handling : Appended to previous track

Used output format : User Defined Encoder
Selected bitrate : 768 kBit/s
Quality : High
Add ID3 tag : No
Command line compressor : C:\Program Files\Exact Audio Copy\Flac\flac.exe
Additional command line options : -8 -V -T “ARTIST=%a” -T “TITLE=%t” -T “ALBUM=%g” -T “DATE=%y” -T “TRACKNUMBER=%n” -T “TOTALTRACKS=%x” -T “GENRE=%m” -T “ALBUMARTIST=%v” -T “ALBUM ARTIST=%v” -T “COMMENT=EAC Secure Mode, Test & Copy, AccurateRip, FLAC -8” %s

TOC of the extracted CD

Track | Start | Length | Start sector | End sector
———————————————————
1 | 0:00.00 | 4:22.72 | 0 | 19721
2 | 4:22.72 | 5:34.03 | 19722 | 44774
3 | 9:57.00 | 3:10.35 | 44775 | 59059
4 | 13:07.35 | 1:29.72 | 59060 | 65806
5 | 14:37.32 | 4:31.52 | 65807 | 86183

Track 1

Filename C:\Addis Gugsa Is Ethiopian\01 – See what a fool I’ve been (BBC Session 1973 – remix 2011).wav

Pre-gap length 0:00:02.00

Peak level 100.0 %
Extraction speed 2.8 X
Track quality 100.0 %
Test CRC CC35E513
Copy CRC CC35E513
Track not present in AccurateRip database
Copy OK

Track 2

Filename C:\Addis Gugsa Is Ethiopian\02 – White queen (as it began) (Live at hammersmith odeon – december 1975).wav

Pre-gap length 0:00:00.57

Peak level 100.0 %
Extraction speed 2.8 X
Track quality 99.9 %
Test CRC 24E9621D
Copy CRC 24E9621D
Track not present in AccurateRip database
Copy OK

Track 3

Filename C:\Addis Gugsa Is Ethiopian\03 – Seven seas of rhye (Instrumental mix – 2011).wav

Pre-gap length 0:00:01.11

Peak level 100.0 %
Extraction speed 3.2 X
Track quality 100.0 %
Test CRC A949AE12
Copy CRC A949AE12
Track not present in AccurateRip database
Copy OK

Track 4

Filename C:\Addis Gugsa Is Ethiopian\04 – Nevermore (BBC Session – april 1974).wav

Pre-gap length 0:00:01.22

Peak level 100.0 %
Extraction speed 2.8 X
Track quality 100.0 %
Test CRC 88BEACA7
Copy CRC 88BEACA7
Track not present in AccurateRip database
Copy OK

Track 5

Filename C:\Addis Gugsa Is Ethiopian\05 – See what a fool I’ve been (B-side version – february 1974).wav

Pre-gap length 0:00:02.05

Peak level 100.0 %
Extraction speed 3.7 X
Track quality 100.0 %
Test CRC 9633B924
Copy CRC 9633B924
Track not present in AccurateRip database
Copy OK

None of the tracks are present in the AccurateRip database

No errors occurred

End of status report

==== Log checksum FABDDABF864D03C730171511EAFAD7B7C6415F350A11B4440E436DEFFAEE5E88 ====

REM GENRE Rock
REM DATE 1974
REM DISCID 8909940B
REM COMMENT “ExactAudioCopy v1.0b1”
PERFORMER “Queen”
TITLE “Queen II ”
FILE “01 – Procession.wav” WAVE
TRACK 01 AUDIO
TITLE “Procession”
PERFORMER “Queen”
INDEX 01 00:00:00
FILE “02 – Father To Son.wav” WAVE
TRACK 02 AUDIO
TITLE “Father To Son”
PERFORMER “Queen”
INDEX 01 00:00:00
FILE “03 – White Queen (As It Began).wav” WAVE
TRACK 03 AUDIO
TITLE “White Queen (As It Began)”
PERFORMER “Queen”
INDEX 01 00:00:00
TRACK 04 AUDIO
TITLE “Some Day One Day”
PERFORMER “Queen”
INDEX 00 04:33:15
FILE “04 – Some Day One Day.wav” WAVE
INDEX 01 00:00:00
FILE “05 – The Loser In The End.wav” WAVE
TRACK 05 AUDIO
TITLE “The Loser In The End”
PERFORMER “Queen”
INDEX 01 00:00:00
TRACK 06 AUDIO
TITLE “Ogre Battle”
PERFORMER “Queen”
INDEX 00 04:01:14
FILE “06 – Ogre Battle.wav” WAVE
INDEX 01 00:00:00
FILE “07 – The Fairy Feller’s Master-Stroke.wav” WAVE
TRACK 07 AUDIO
TITLE “The Fairy Feller’s Master-Stroke”
PERFORMER “Queen”
INDEX 01 00:00:00
FILE “08 – Nevermore.wav” WAVE
TRACK 08 AUDIO
TITLE “Nevermore”
PERFORMER “Queen”
INDEX 01 00:00:00
FILE “09 – The March Of The Black Queen.wav” WAVE
TRACK 09 AUDIO
TITLE “The March Of The Black Queen”
PERFORMER “Queen”
INDEX 01 00:00:00
FILE “10 – Funny How Love Is.wav” WAVE
TRACK 10 AUDIO
TITLE “Funny How Love Is”
PERFORMER “Queen”
INDEX 01 00:00:00
TRACK 11 AUDIO
TITLE “Seven Seas Of Rhye”
PERFORMER “Queen”
INDEX 00 02:49:57
FILE “11 – Seven Seas Of Rhye.wav” WAVE
INDEX 01 00:00:00

REM GENRE Rock
REM DATE 1974
REM DISCID 55047D05
REM COMMENT “ExactAudioCopy v1.0b1”
PERFORMER “Queen”
TITLE “Queen II Bonus EP”
FILE “01 – See what a fool I’ve been (BBC Session 1973 – remix 2011).wav” WAVE
TRACK 01 AUDIO
TITLE “See what a fool I’ve been (BBC Session 1973 – remix 2011)”
PERFORMER “Queen”
INDEX 01 00:00:00
TRACK 02 AUDIO
TITLE “White queen (as it began) (Live at hammersmith odeon – december 1975)”
PERFORMER “Queen”
INDEX 00 04:22:15
FILE “02 – White queen (as it began) (Live at hammersmith odeon – december 1975).wav” WAVE
INDEX 01 00:00:00
TRACK 03 AUDIO
TITLE “Seven seas of rhye (Instrumental mix – 2011)”
PERFORMER “Queen”
INDEX 00 05:32:67
FILE “03 – Seven seas of rhye (Instrumental mix – 2011).wav” WAVE
INDEX 01 00:00:00
TRACK 04 AUDIO
TITLE “Nevermore (BBC Session – april 1974)”
PERFORMER “Queen”
INDEX 00 03:09:13
FILE “04 – Nevermore (BBC Session – april 1974).wav” WAVE
INDEX 01 00:00:00
TRACK 05 AUDIO
TITLE “See what a fool I’ve been (B-side version – february 1974)”
PERFORMER “Queen”
INDEX 00 01:27:67
FILE “05 – See what a fool I’ve been (B-side version – february 1974).wav” WAVE
INDEX 01 00:00:00


Leave a Reply

Your email address will not be published. Required fields are marked *

This site uses Akismet to reduce spam. Learn how your comment data is processed.