Queen – Live Magic




Artist: Queen
Year: 1990
Genre: Rock
Notes: Discogs
Add. Notes:
Encoder: FLAC
Bitrate: ~900 kBit/s (44.1 kHz/16 Bit/s)
Size: 301 MB
Password: “slam” (without ” “)


http://www.share-online.biz/dl/QVCEH1RPZJF
https://rapidgator.net/file/d103a232a4d9f28c64da9c5aa760a0b7
https://ayefiles.com/nu1dnxkkwx6i/Que-LivMag.rar.html
https://hitfile.net/O4ef1M0

Onlinestatus: Turbobit.net Rapidgator.net AyeFiles.com Hitfile.net

Tracklist:

1 - One Vision - 
2 - Tie Your Mother Down - 
3 - Seven Seas Of Rhye - 
4 - A Kind Of Magic - 
5 - Under Pressure - 
6 - Another One Bites The Dust - 
7 - I Want To Break Free - 
8 - Is This The World We Created? - 
9 - Bohemian Rhapsody - 
10 - Hammer To Fall - 
11 - Radio Ga-Ga - 
12 - We Will Rock You - 
13 - Friends Will Be Friends - 
14 - We Are The Champions - 
15 - God Save The Queen

EAC-Log, CUE-Sheed & NFO:

Click to open spoiler
Exact Audio Copy V1.0 beta 1 from 15. November 2010

EAC extraction logfile from 13. January 2011, 16:20

Queen / Live Magic

Used drive : Optiarc BD ROM BC-5530H Adapter: 0 ID: 1

Read mode : Secure
Utilize accurate stream : Yes
Defeat audio cache : Yes
Make use of C2 pointers : No

Read offset correction : 48
Overread into Lead-In and Lead-Out : No
Fill up missing offset samples with silence : Yes
Delete leading and trailing silent blocks : No
Null samples used in CRC calculations : Yes
Used interface : Native Win32 interface for Win NT & 2000
Gap handling : Appended to previous track

Used output format : User Defined Encoder
Selected bitrate : 320 kBit/s
Quality : High
Add ID3 tag : No
Command line compressor : C:\Program Files (x86)\Exact Audio Copy\Flac\flac.exe
Additional command line options : -V -8 -T “artist=%a” -T “title=%t” -T “album=%g” -T “date=%y” -T “tracknumber=%n” -T “genre=%m” %s

TOC of the extracted CD

Track | Start | Length | Start sector | End sector
———————————————————
1 | 0:00.33 | 5:08.50 | 33 | 23182
2 | 5:09.08 | 2:59.25 | 23183 | 36632
3 | 8:08.33 | 1:21.20 | 36633 | 42727
4 | 9:29.53 | 5:29.55 | 42728 | 67457
5 | 14:59.33 | 3:48.45 | 67458 | 84602
6 | 18:48.03 | 5:50.02 | 84603 | 110854
7 | 24:38.05 | 2:40.45 | 110855 | 122899
8 | 27:18.50 | 1:30.70 | 122900 | 129719
9 | 28:49.45 | 4:41.58 | 129720 | 150852
10 | 33:31.28 | 5:20.00 | 150853 | 174852
11 | 38:51.28 | 4:26.62 | 174853 | 194864
12 | 43:18.15 | 1:32.73 | 194865 | 201837
13 | 44:51.13 | 1:09.12 | 201838 | 207024
14 | 46:00.25 | 2:01.30 | 207025 | 216129
15 | 48:01.55 | 1:18.68 | 216130 | 222047

Track 1

Filename C:\EAC Rips\Queen – 1986 – Live Magic [FLAC]\01 – One Vision.wav

Pre-gap length 0:00:02.44

Peak level 83.3 %
Extraction speed 10.5 X
Track quality 100.0 %
Test CRC C595B10B
Copy CRC C595B10B
Accurately ripped (confidence 35) [A1273477]
Copy OK

Track 2

Filename C:\EAC Rips\Queen – 1986 – Live Magic [FLAC]\02 – Tie Your Mother Down.wav

Pre-gap length 0:00:00.04

Peak level 86.3 %
Extraction speed 10.2 X
Track quality 99.9 %
Test CRC FB7F1363
Copy CRC FB7F1363
Accurately ripped (confidence 35) [6D9DAD9A]
Copy OK

Track 3

Filename C:\EAC Rips\Queen – 1986 – Live Magic [FLAC]\03 – Seven Seas Of Rhye.wav

Pre-gap length 0:00:00.04

Peak level 84.0 %
Extraction speed 10.6 X
Track quality 100.0 %
Test CRC 0818787A
Copy CRC 0818787A
Accurately ripped (confidence 35) [853B527B]
Copy OK

Track 4

Filename C:\EAC Rips\Queen – 1986 – Live Magic [FLAC]\04 – A Kind Of Magic.wav

Pre-gap length 0:00:00.04

Peak level 100.0 %
Extraction speed 12.2 X
Track quality 99.9 %
Test CRC 9884DB98
Copy CRC 9884DB98
Accurately ripped (confidence 35) [AEFD1C0B]
Copy OK

Track 5

Filename C:\EAC Rips\Queen – 1986 – Live Magic [FLAC]\05 – Under Pressure.wav

Pre-gap length 0:00:00.04

Peak level 66.9 %
Extraction speed 13.5 X
Track quality 100.0 %
Test CRC B71B4D7D
Copy CRC B71B4D7D
Accurately ripped (confidence 35) [9F2CC257]
Copy OK

Track 6

Filename C:\EAC Rips\Queen – 1986 – Live Magic [FLAC]\06 – Another One Bites The Dust.wav

Pre-gap length 0:00:00.04

Peak level 87.5 %
Extraction speed 14.8 X
Track quality 100.0 %
Test CRC AB0ADF58
Copy CRC AB0ADF58
Accurately ripped (confidence 34) [1C2A9423]
Copy OK

Track 7

Filename C:\EAC Rips\Queen – 1986 – Live Magic [FLAC]\07 – I Want To Break Free.wav

Pre-gap length 0:00:00.02

Peak level 68.6 %
Extraction speed 14.6 X
Track quality 100.0 %
Test CRC 12E4C3C5
Copy CRC 12E4C3C5
Accurately ripped (confidence 35) [9CDF89F9]
Copy OK

Track 8

Filename C:\EAC Rips\Queen – 1986 – Live Magic [FLAC]\08 – Is This The World We Created ….wav

Pre-gap length 0:00:00.02

Peak level 57.6 %
Extraction speed 13.7 X
Track quality 100.0 %
Test CRC 2ECB4275
Copy CRC 2ECB4275
Accurately ripped (confidence 35) [2E92A384]
Copy OK

Track 9

Filename C:\EAC Rips\Queen – 1986 – Live Magic [FLAC]\09 – Bohemian Rhapsody.wav

Pre-gap length 0:00:00.02

Peak level 91.2 %
Extraction speed 16.1 X
Track quality 100.0 %
Test CRC D960739B
Copy CRC D960739B
Accurately ripped (confidence 34) [8DBEF13D]
Copy OK

Track 10

Filename C:\EAC Rips\Queen – 1986 – Live Magic [FLAC]\10 – Hammer To Fall.wav

Pre-gap length 0:00:00.04

Peak level 72.1 %
Extraction speed 16.9 X
Track quality 100.0 %
Test CRC AAE5BCBD
Copy CRC AAE5BCBD
Accurately ripped (confidence 33) [08F3F516]
Copy OK

Track 11

Filename C:\EAC Rips\Queen – 1986 – Live Magic [FLAC]\11 – Radio Ga-Ga.wav

Pre-gap length 0:00:00.04

Peak level 80.0 %
Extraction speed 17.4 X
Track quality 100.0 %
Test CRC BCA58209
Copy CRC BCA58209
Accurately ripped (confidence 33) [743DF998]
Copy OK

Track 12

Filename C:\EAC Rips\Queen – 1986 – Live Magic [FLAC]\12 – We Will Rock You.wav

Pre-gap length 0:00:00.02

Peak level 51.0 %
Extraction speed 12.4 X
Track quality 99.8 %
Test CRC 61AFED6D
Copy CRC 61AFED6D
Accurately ripped (confidence 33) [50903F6E]
Copy OK

Track 13

Filename C:\EAC Rips\Queen – 1986 – Live Magic [FLAC]\13 – Friends Will Be Friends.wav

Pre-gap length 0:00:00.04

Peak level 69.7 %
Extraction speed 14.6 X
Track quality 100.0 %
Test CRC 43159A2C
Copy CRC 43159A2C
Accurately ripped (confidence 34) [C6F771BC]
Copy OK

Track 14

Filename C:\EAC Rips\Queen – 1986 – Live Magic [FLAC]\14 – We Are The Champions.wav

Pre-gap length 0:00:00.02

Peak level 56.6 %
Extraction speed 16.3 X
Track quality 100.0 %
Test CRC 9A3F511B
Copy CRC 9A3F511B
Accurately ripped (confidence 34) [8DD766D9]
Copy OK

Track 15

Filename C:\EAC Rips\Queen – 1986 – Live Magic [FLAC]\15 – God Save The Queen.wav

Pre-gap length 0:00:00.02

Peak level 48.2 %
Extraction speed 16.2 X
Track quality 100.0 %
Test CRC E2D1C70B
Copy CRC E2D1C70B
Accurately ripped (confidence 33) [F75402B8]
Copy OK

All tracks accurately ripped

No errors occurred

End of status report

==== Log checksum 73D09B09A833C28FB07419DC07988B5FE15EFE10287CF15451AC63FE3DFE751C ====

REM GENRE Rock
REM DATE 1986
REM DISCID A70B900F
REM COMMENT “ExactAudioCopy v1.0b1”
FILE “01 – One Vision.wav” WAVE
TRACK 01 AUDIO
PREGAP 00:00:33
INDEX 01 00:00:00
TRACK 02 AUDIO
INDEX 00 05:08:47
FILE “02 – Tie Your Mother Down.wav” WAVE
INDEX 01 00:00:00
TRACK 03 AUDIO
INDEX 00 02:59:22
FILE “03 – Seven Seas Of Rhye.wav” WAVE
INDEX 01 00:00:00
TRACK 04 AUDIO
INDEX 00 01:21:17
FILE “04 – A Kind Of Magic.wav” WAVE
INDEX 01 00:00:00
TRACK 05 AUDIO
INDEX 00 05:29:52
FILE “05 – Under Pressure.wav” WAVE
INDEX 01 00:00:00
TRACK 06 AUDIO
INDEX 00 03:48:42
FILE “06 – Another One Bites The Dust.wav” WAVE
INDEX 01 00:00:00
TRACK 07 AUDIO
INDEX 00 05:50:00
FILE “07 – I Want To Break Free.wav” WAVE
INDEX 01 00:00:00
TRACK 08 AUDIO
INDEX 00 02:40:43
FILE “08 – Is This The World We Created ….wav” WAVE
INDEX 01 00:00:00
TRACK 09 AUDIO
INDEX 00 01:30:68
FILE “09 – Bohemian Rhapsody.wav” WAVE
INDEX 01 00:00:00
TRACK 10 AUDIO
INDEX 00 04:41:55
FILE “10 – Hammer To Fall.wav” WAVE
INDEX 01 00:00:00
TRACK 11 AUDIO
INDEX 00 05:19:72
FILE “11 – Radio Ga-Ga.wav” WAVE
INDEX 01 00:00:00
TRACK 12 AUDIO
INDEX 00 04:26:60
FILE “12 – We Will Rock You.wav” WAVE
INDEX 01 00:00:00
TRACK 13 AUDIO
INDEX 00 01:32:70
FILE “13 – Friends Will Be Friends.wav” WAVE
INDEX 01 00:00:00
TRACK 14 AUDIO
INDEX 00 01:09:10
FILE “14 – We Are The Champions.wav” WAVE
INDEX 01 00:00:00
TRACK 15 AUDIO
INDEX 00 02:01:28
FILE “15 – God Save The Queen.wav” WAVE
INDEX 01 00:00:00

Leave a Reply

Your email address will not be published. Required fields are marked *

Enter the text from the image below
 

This site uses Akismet to reduce spam. Learn how your comment data is processed.