Queen – Forever (Deluxe Edition)




No Cover available

Artist: Queen
Year: 2014
Genre: Rock
Notes: Discogs
Add. Notes: Deluxe Edition
Watch Songs on: YouTube
Cover incl.: Yes
Encoder: FLAC
Bitrate: ~900 kBit/s (44.1 kHz/16 Bit/s)
Log & Cue incl.: Yes
Size: 882,6 MB
Password: “slam” (without ” “)


All Downloads/Hosters are compatible

Download 1
KatFile.com
Turbobit.net
Rapidgator.net
Download 2
KatFile.com
Turbobit.net
Rapidgator.net

Tracklist:

1-1 - Let Me In Your Heart Again - 4:35
1-2 - Love Kills - The Ballad - 4:11
1-3 - There Must Be More To Life Than This (William Orbit 
Mix) - 3:25
1-4 - Play The Game - 3:14
1-5 - Dear Friends - 1:07
1-6 - You’re My Best Friend - 2:51
1-7 - Love Of My Life - 3:37
1-8 - Drowse - 3:44
1-9 - You Take My Breath Away - 4:38
1-10 - Spread Your Wings - 4:32
1-11 - Long Away - 3:33
1-12 - Lily Of The Valley - 1:40
1-13 - Don't Try So Hard - 3:39
1-14 - Bijou - 3:36
1-15 - These Are The Days Of Our Lives - 4:15
1-16 - Nevermore - 1:19
1-17 - Las Palabras De Amor (The Words Of Love) - 4:31
1-18 - Who Wants To Live Forever - 5:15
2-1 - I Was Born To Love You - 4:49
2-2 - Somebody To Love - 4:52
2-3 - Crazy Little Thing Called Love - 2:43
2-4 - Friends Will Be Friends - 4:07
2-5 - Jealousy - 3:13
2-6 - One Year Of Love - 4:26
2-7 - A Winter's Tale - 3:49
2-8 - ‘39 - 3:30
2-9 - Mother Love - 4:46
2-10 - It's A Hard Life - 4:09
2-11 - Save Me - 3:48
2-12 - Made In Heaven - 5:25
2-13 - Too Much Love Will Kill You - 4:20
2-14 - Sail Away Sweet Sister - 3:33
2-15 - The Miracle - 5:01
2-16 - Is This The World We Created...? - 2:13
2-17 - In The Lap Of The Gods... Revisited - 3:44
2-18 - Forever - 3:20

EAC-Log, CUE-Sheed & NFO:

Click to open spoiler
Exact Audio Copy V1.0 beta 3 from 29. August 2011

EAC extraction logfile from 13. November 2014, 20:02

Queen / Forever (Deluxe Editon) (Disc 1)

Used drive : PLDS BD-RE DH-8B2SH Adapter: 0 ID: 0

Read mode : Secure
Utilize accurate stream : Yes
Defeat audio cache : Yes
Make use of C2 pointers : No

Read offset correction : 6
Overread into Lead-In and Lead-Out : No
Fill up missing offset samples with silence : Yes
Delete leading and trailing silent blocks : No
Null samples used in CRC calculations : Yes
Used interface : Native Win32 interface for Win NT & 2000
Gap handling : Appended to previous track

Used output format : User Defined Encoder
Selected bitrate : 1024 kBit/s
Quality : High
Add ID3 tag : No
Command line compressor : C:\Program Files (x86)\Exact Audio Copy\Flac\flac.exe
Additional command line options : -8 -V -T “artist=%artist%” -T “title=%title%” -T “album=%albumtitle%” -T “date=%year%” -T “tracknumber=%tracknr%” -T “genre=%genre%” %source%

TOC of the extracted CD

Track | Start | Length | Start sector | End sector
———————————————————
1 | 0:00.00 | 4:35.00 | 0 | 20624
2 | 4:35.00 | 4:12.46 | 20625 | 39570
3 | 8:47.46 | 3:27.29 | 39571 | 55124
4 | 12:15.00 | 3:14.46 | 55125 | 69720
5 | 15:29.46 | 1:08.63 | 69721 | 74883
6 | 16:38.34 | 2:52.20 | 74884 | 87803
7 | 19:30.54 | 3:33.25 | 87804 | 103803
8 | 23:04.04 | 3:38.40 | 103804 | 120193
9 | 26:42.44 | 4:38.37 | 120194 | 141080
10 | 31:21.06 | 4:30.14 | 141081 | 161344
11 | 35:51.20 | 3:32.01 | 161345 | 177245
12 | 39:23.21 | 1:39.62 | 177246 | 184732
13 | 41:03.08 | 3:39.60 | 184733 | 201217
14 | 44:42.68 | 3:36.54 | 201218 | 217471
15 | 48:19.47 | 4:14.68 | 217472 | 236589
16 | 52:34.40 | 1:18.43 | 236590 | 242482
17 | 53:53.08 | 4:31.12 | 242483 | 262819
18 | 58:24.20 | 5:15.12 | 262820 | 286456

Track 1

Filename C:\burn\Queen – Forever (Deluxe Edition) (2014) (flac)\Disc 1\01 – Queen – Let Me In Your Heart Again.wav

Pre-gap length 0:00:02.00

Peak level 100.0 %
Extraction speed 2.3 X
Track quality 100.0 %
Test CRC 920E5F8F
Copy CRC 920E5F8F
Track not present in AccurateRip database
Copy OK

Track 2

Filename C:\burn\Queen – Forever (Deluxe Edition) (2014) (flac)\Disc 1\02 – Queen – Love Kills (The Ballad).wav

Peak level 99.6 %
Extraction speed 2.5 X
Track quality 100.0 %
Test CRC 65EA28F7
Copy CRC 65EA28F7
Track not present in AccurateRip database
Copy OK

Track 3

Filename C:\burn\Queen – Forever (Deluxe Edition) (2014) (flac)\Disc 1\03 – Queen & Michael Jackson – There Must Be More To Life Than This (William Orbit Mix).wav

Peak level 100.0 %
Extraction speed 2.6 X
Track quality 100.0 %
Test CRC 04FA8721
Copy CRC 04FA8721
Track not present in AccurateRip database
Copy OK

Track 4

Filename C:\burn\Queen – Forever (Deluxe Edition) (2014) (flac)\Disc 1\04 – Queen – Play The Game.wav

Peak level 100.0 %
Extraction speed 2.7 X
Track quality 100.0 %
Test CRC BA511806
Copy CRC BA511806
Track not present in AccurateRip database
Copy OK

Track 5

Filename C:\burn\Queen – Forever (Deluxe Edition) (2014) (flac)\Disc 1\05 – Queen – Dear Friends.wav

Peak level 90.2 %
Extraction speed 2.1 X
Track quality 100.0 %
Test CRC AC093EBA
Copy CRC AC093EBA
Track not present in AccurateRip database
Copy OK

Track 6

Filename C:\burn\Queen – Forever (Deluxe Edition) (2014) (flac)\Disc 1\06 – Queen – You’re My Best Friend.wav

Peak level 94.0 %
Extraction speed 2.8 X
Track quality 100.0 %
Test CRC 3CAC692E
Copy CRC 3CAC692E
Track not present in AccurateRip database
Copy OK

Track 7

Filename C:\burn\Queen – Forever (Deluxe Edition) (2014) (flac)\Disc 1\07 – Queen – Love Of My Life.wav

Peak level 93.8 %
Extraction speed 3.0 X
Track quality 100.0 %
Test CRC EB89606E
Copy CRC EB89606E
Track not present in AccurateRip database
Copy OK

Track 8

Filename C:\burn\Queen – Forever (Deluxe Edition) (2014) (flac)\Disc 1\08 – Queen – Drowse.wav

Peak level 100.0 %
Extraction speed 3.2 X
Track quality 100.0 %
Test CRC 18B4EC88
Copy CRC 18B4EC88
Track not present in AccurateRip database
Copy OK

Track 9

Filename C:\burn\Queen – Forever (Deluxe Edition) (2014) (flac)\Disc 1\09 – Queen – You Take My Breath Away.wav

Peak level 98.8 %
Extraction speed 3.5 X
Track quality 100.0 %
Test CRC C7AD06AA
Copy CRC C7AD06AA
Track not present in AccurateRip database
Copy OK

Track 10

Filename C:\burn\Queen – Forever (Deluxe Edition) (2014) (flac)\Disc 1\10 – Queen – Spread Your Wings.wav

Peak level 100.0 %
Extraction speed 3.6 X
Track quality 100.0 %
Test CRC CDECA093
Copy CRC CDECA093
Track not present in AccurateRip database
Copy OK

Track 11

Filename C:\burn\Queen – Forever (Deluxe Edition) (2014) (flac)\Disc 1\11 – Queen – Long Away.wav

Peak level 100.0 %
Extraction speed 3.7 X
Track quality 100.0 %
Test CRC 77D130F2
Copy CRC 77D130F2
Track not present in AccurateRip database
Copy OK

Track 12

Filename C:\burn\Queen – Forever (Deluxe Edition) (2014) (flac)\Disc 1\12 – Queen – Lily Of The Valley.wav

Peak level 99.3 %
Extraction speed 3.1 X
Track quality 100.0 %
Test CRC D99E3F9E
Copy CRC D99E3F9E
Track not present in AccurateRip database
Copy OK

Track 13

Filename C:\burn\Queen – Forever (Deluxe Edition) (2014) (flac)\Disc 1\13 – Queen – Don’t Try So Hard.wav

Peak level 100.0 %
Extraction speed 3.8 X
Track quality 100.0 %
Test CRC 321A5A99
Copy CRC 321A5A99
Track not present in AccurateRip database
Copy OK

Track 14

Filename C:\burn\Queen – Forever (Deluxe Edition) (2014) (flac)\Disc 1\14 – Queen – Bijou.wav

Peak level 99.0 %
Extraction speed 4.0 X
Track quality 100.0 %
Test CRC 3497EA1C
Copy CRC 3497EA1C
Track not present in AccurateRip database
Copy OK

Track 15

Filename C:\burn\Queen – Forever (Deluxe Edition) (2014) (flac)\Disc 1\15 – Queen – These Are The Days Of Our Lives.wav

Peak level 98.3 %
Extraction speed 4.1 X
Track quality 100.0 %
Test CRC 3BE8DD18
Copy CRC 3BE8DD18
Track not present in AccurateRip database
Copy OK

Track 16

Filename C:\burn\Queen – Forever (Deluxe Edition) (2014) (flac)\Disc 1\16 – Queen – Nevermore.wav

Peak level 100.0 %
Extraction speed 3.3 X
Track quality 100.0 %
Test CRC 5CD72C64
Copy CRC 5CD72C64
Track not present in AccurateRip database
Copy OK

Track 17

Filename C:\burn\Queen – Forever (Deluxe Edition) (2014) (flac)\Disc 1\17 – Queen – Las Palabras De Amor (The Words Of Love).wav

Peak level 100.0 %
Extraction speed 4.4 X
Track quality 100.0 %
Test CRC 96AE1781
Copy CRC 96AE1781
Track not present in AccurateRip database
Copy OK

Track 18

Filename C:\burn\Queen – Forever (Deluxe Edition) (2014) (flac)\Disc 1\18 – Queen – Who Wants To Live Forever.wav

Peak level 100.0 %
Extraction speed 4.5 X
Track quality 100.0 %
Test CRC 5DC741AD
Copy CRC 5DC741AD
Track not present in AccurateRip database
Copy OK

None of the tracks are present in the AccurateRip database

No errors occurred

End of status report

==== Log checksum AB2CC86ED0EFBA90AE5F68D136561F5F4FA27E2F245AEC0765BDC68E26D98E39 ====

Exact Audio Copy V1.0 beta 3 from 29. August 2011

EAC extraction logfile from 14. November 2014, 6:38

Queen / Forever (Deluxe Edition) (Disc 2)

Used drive : PLDS BD-RE DH-8B2SH Adapter: 0 ID: 0

Read mode : Secure
Utilize accurate stream : Yes
Defeat audio cache : Yes
Make use of C2 pointers : No

Read offset correction : 6
Overread into Lead-In and Lead-Out : No
Fill up missing offset samples with silence : Yes
Delete leading and trailing silent blocks : No
Null samples used in CRC calculations : Yes
Used interface : Native Win32 interface for Win NT & 2000
Gap handling : Appended to previous track

Used output format : User Defined Encoder
Selected bitrate : 1024 kBit/s
Quality : High
Add ID3 tag : No
Command line compressor : C:\Program Files (x86)\Exact Audio Copy\Flac\flac.exe
Additional command line options : -8 -V -T “artist=%artist%” -T “title=%title%” -T “album=%albumtitle%” -T “date=%year%” -T “tracknumber=%tracknr%” -T “genre=%genre%” %source%

TOC of the extracted CD

Track | Start | Length | Start sector | End sector
———————————————————
1 | 0:00.00 | 4:50.01 | 0 | 21750
2 | 4:50.01 | 4:52.71 | 21751 | 43721
3 | 9:42.72 | 2:43.39 | 43722 | 55985
4 | 12:26.36 | 4:06.41 | 55986 | 74476
5 | 16:33.02 | 3:13.66 | 74477 | 89017
6 | 19:46.68 | 4:27.51 | 89018 | 109093
7 | 24:14.44 | 3:48.25 | 109094 | 126218
8 | 28:02.69 | 3:30.61 | 126219 | 142029
9 | 31:33.55 | 4:47.29 | 142030 | 163583
10 | 36:21.09 | 4:06.14 | 163584 | 182047
11 | 40:27.23 | 3:46.47 | 182048 | 199044
12 | 44:13.70 | 5:25.06 | 199045 | 223425
13 | 49:39.01 | 4:20.13 | 223426 | 242938
14 | 53:59.14 | 3:33.29 | 242939 | 258942
15 | 57:32.43 | 4:57.20 | 258943 | 281237
16 | 62:29.63 | 2:12.57 | 281238 | 291194
17 | 64:42.45 | 3:46.61 | 291195 | 308205
18 | 68:29.31 | 3:21.23 | 308206 | 323303

Track 1

Filename C:\burn\Queen – Forever (Deluxe Edition) (2014) (flac)\Disc 2\01 – Queen – I Was Born To Love You.wav

Pre-gap length 0:00:02.00

Peak level 100.0 %
Extraction speed 2.3 X
Track quality 100.0 %
Test CRC 750BF526
Copy CRC 750BF526
Track not present in AccurateRip database
Copy OK

Track 2

Filename C:\burn\Queen – Forever (Deluxe Edition) (2014) (flac)\Disc 2\02 – Queen – Somebody To Love.wav

Peak level 99.1 %
Extraction speed 2.6 X
Track quality 100.0 %
Test CRC AB6BFD8E
Copy CRC AB6BFD8E
Track not present in AccurateRip database
Copy OK

Track 3

Filename C:\burn\Queen – Forever (Deluxe Edition) (2014) (flac)\Disc 2\03 – Queen – Crazy Little Thing Called Love.wav

Peak level 100.0 %
Extraction speed 2.5 X
Track quality 100.0 %
Test CRC 33E765B6
Copy CRC 33E765B6
Track not present in AccurateRip database
Copy OK

Track 4

Filename C:\burn\Queen – Forever (Deluxe Edition) (2014) (flac)\Disc 2\04 – Queen – Friends Will Be Friends.wav

Peak level 99.8 %
Extraction speed 2.8 X
Track quality 100.0 %
Test CRC 9A8DE415
Copy CRC 9A8DE415
Track not present in AccurateRip database
Copy OK

Track 5

Filename C:\burn\Queen – Forever (Deluxe Edition) (2014) (flac)\Disc 2\05 – Queen – Jealousy.wav

Peak level 100.0 %
Extraction speed 2.0 X
Track quality 99.9 %
Test CRC 9FD9486C
Copy CRC 9FD9486C
Track not present in AccurateRip database
Copy OK

Track 6

Filename C:\burn\Queen – Forever (Deluxe Edition) (2014) (flac)\Disc 2\06 – Queen – One Year Of Love.wav

Peak level 100.0 %
Extraction speed 3.2 X
Track quality 100.0 %
Test CRC A3AA7BD3
Copy CRC A3AA7BD3
Track not present in AccurateRip database
Copy OK

Track 7

Filename C:\burn\Queen – Forever (Deluxe Edition) (2014) (flac)\Disc 2\07 – Queen – A Winter’s Tale.wav

Peak level 99.2 %
Extraction speed 3.3 X
Track quality 100.0 %
Test CRC CEB2C555
Copy CRC CEB2C555
Track not present in AccurateRip database
Copy OK

Track 8

Filename C:\burn\Queen – Forever (Deluxe Edition) (2014) (flac)\Disc 2\08 – Queen – ’39.wav

Peak level 94.1 %
Extraction speed 2.4 X
Track quality 99.9 %
Test CRC 3AEE0FBC
Copy CRC 3AEE0FBC
Track not present in AccurateRip database
Copy OK

Track 9

Filename C:\burn\Queen – Forever (Deluxe Edition) (2014) (flac)\Disc 2\09 – Queen – Mother Love.wav

Peak level 99.4 %
Extraction speed 3.6 X
Track quality 100.0 %
Test CRC 27C1887E
Copy CRC 27C1887E
Track not present in AccurateRip database
Copy OK

Track 10

Filename C:\burn\Queen – Forever (Deluxe Edition) (2014) (flac)\Disc 2\10 – Queen – It’s A Hard Life.wav

Peak level 99.4 %
Extraction speed 3.7 X
Track quality 100.0 %
Test CRC C49A0747
Copy CRC C49A0747
Track not present in AccurateRip database
Copy OK

Track 11

Filename C:\burn\Queen – Forever (Deluxe Edition) (2014) (flac)\Disc 2\11 – Queen – Save Me.wav

Peak level 100.0 %
Extraction speed 3.8 X
Track quality 100.0 %
Test CRC 6FC1E13E
Copy CRC 6FC1E13E
Track not present in AccurateRip database
Copy OK

Track 12

Filename C:\burn\Queen – Forever (Deluxe Edition) (2014) (flac)\Disc 2\12 – Queen – Made In Heaven.wav

Peak level 100.0 %
Extraction speed 4.1 X
Track quality 100.0 %
Test CRC 6BE8AF8E
Copy CRC 6BE8AF8E
Track not present in AccurateRip database
Copy OK

Track 13

Filename C:\burn\Queen – Forever (Deluxe Edition) (2014) (flac)\Disc 2\13 – Queen – Too Much Love Will Kill You.wav

Peak level 99.9 %
Extraction speed 4.1 X
Track quality 100.0 %
Test CRC 0DE96E4B
Copy CRC 0DE96E4B
Track not present in AccurateRip database
Copy OK

Track 14

Filename C:\burn\Queen – Forever (Deluxe Edition) (2014) (flac)\Disc 2\14 – Queen – Sail Away Sweet Sister.wav

Peak level 100.0 %
Extraction speed 4.1 X
Track quality 100.0 %
Test CRC ABCC213B
Copy CRC ABCC213B
Track not present in AccurateRip database
Copy OK

Track 15

Filename C:\burn\Queen – Forever (Deluxe Edition) (2014) (flac)\Disc 2\15 – Queen – The Miracle.wav

Peak level 100.0 %
Extraction speed 4.5 X
Track quality 100.0 %
Test CRC C7CD8E46
Copy CRC C7CD8E46
Track not present in AccurateRip database
Copy OK

Track 16

Filename C:\burn\Queen – Forever (Deluxe Edition) (2014) (flac)\Disc 2\16 – Queen – Is This The World We Created….wav

Peak level 98.8 %
Extraction speed 4.0 X
Track quality 100.0 %
Test CRC 4884BFA7
Copy CRC 4884BFA7
Track not present in AccurateRip database
Copy OK

Track 17

Filename C:\burn\Queen – Forever (Deluxe Edition) (2014) (flac)\Disc 2\17 – Queen – In The Lap Of The Gods…Revisited.wav

Peak level 98.2 %
Extraction speed 4.5 X
Track quality 100.0 %
Test CRC DC4A2EAF
Copy CRC DC4A2EAF
Track not present in AccurateRip database
Copy OK

Track 18

Filename C:\burn\Queen – Forever (Deluxe Edition) (2014) (flac)\Disc 2\18 – Queen – Forever.wav

Peak level 99.3 %
Extraction speed 4.5 X
Track quality 100.0 %
Test CRC CDBB70F5
Copy CRC CDBB70F5
Track not present in AccurateRip database
Copy OK

None of the tracks are present in the AccurateRip database

No errors occurred

End of status report

==== Log checksum 786DCB55BE74253705F987F695E4CCCF85F2E7CCFBA6FB4CB1C513C8C564C409 ====

REM GENRE Rock
REM DATE 2014
REM DISCID F30EEB12
REM COMMENT “ExactAudioCopy v1.0b3”
CATALOG 0050087317515
PERFORMER “Queen”
TITLE “Forever (Deluxe Editon) (Disc 1)”
FILE “01 – Queen – Let Me In Your Heart Again.wav” WAVE
TRACK 01 AUDIO
TITLE “Let Me In Your Heart Again”
PERFORMER “Queen”
ISRC GBUM71404697
INDEX 01 00:00:00
FILE “02 – Queen – Love Kills (The Ballad).wav” WAVE
TRACK 02 AUDIO
TITLE “Love Kills (The Ballad)”
PERFORMER “Queen”
ISRC GBUM71404699
INDEX 01 00:00:00
FILE “03 – Queen & Michael Jackson – There Must Be More To Life Than This (William Orbit Mix).wav” WAVE
TRACK 03 AUDIO
TITLE “There Must Be More To Life Than This (William Orbit Mix)”
PERFORMER “Queen & Michael Jackson”
ISRC GBUM71404702
INDEX 01 00:00:00
FILE “04 – Queen – Play The Game.wav” WAVE
TRACK 04 AUDIO
TITLE “Play The Game”
PERFORMER “Queen”
ISRC GBUM71404703
INDEX 01 00:00:00
FILE “05 – Queen – Dear Friends.wav” WAVE
TRACK 05 AUDIO
TITLE “Dear Friends”
PERFORMER “Queen”
ISRC GBUM71100520
INDEX 01 00:00:00
FILE “06 – Queen – You’re My Best Friend.wav” WAVE
TRACK 06 AUDIO
TITLE “You’re My Best Friend”
PERFORMER “Queen”
ISRC GBUM71029609
INDEX 01 00:00:00
FILE “07 – Queen – Love Of My Life.wav” WAVE
TRACK 07 AUDIO
TITLE “Love Of My Life”
PERFORMER “Queen”
ISRC GBUM71100536
INDEX 01 00:00:00
FILE “08 – Queen – Drowse.wav” WAVE
TRACK 08 AUDIO
TITLE “Drowse”
PERFORMER “Queen”
ISRC GBUM71404705
INDEX 01 00:00:00
FILE “09 – Queen – You Take My Breath Away.wav” WAVE
TRACK 09 AUDIO
TITLE “You Take My Breath Away”
PERFORMER “Queen”
ISRC GBUM71404706
INDEX 01 00:00:00
FILE “10 – Queen – Spread Your Wings.wav” WAVE
TRACK 10 AUDIO
TITLE “Spread Your Wings”
PERFORMER “Queen”
ISRC GBUM71404707
INDEX 01 00:00:00
FILE “11 – Queen – Long Away.wav” WAVE
TRACK 11 AUDIO
TITLE “Long Away”
PERFORMER “Queen”
ISRC GBUM71100506
INDEX 01 00:00:00
FILE “12 – Queen – Lily Of The Valley.wav” WAVE
TRACK 12 AUDIO
TITLE “Lily Of The Valley”
PERFORMER “Queen”
ISRC GBUM71404708
INDEX 01 00:00:00
FILE “13 – Queen – Don’t Try So Hard.wav” WAVE
TRACK 13 AUDIO
TITLE “Don’t Try So Hard”
PERFORMER “Queen”
ISRC GBUM71106215
INDEX 01 00:00:00
FILE “14 – Queen – Bijou.wav” WAVE
TRACK 14 AUDIO
TITLE “Bijou”
PERFORMER “Queen”
ISRC GBUM71106220
INDEX 01 00:00:00
FILE “15 – Queen – These Are The Days Of Our Lives.wav” WAVE
TRACK 15 AUDIO
TITLE “These Are The Days Of Our Lives”
PERFORMER “Queen”
ISRC GBUM71103766
INDEX 01 00:00:00
FILE “16 – Queen – Nevermore.wav” WAVE
TRACK 16 AUDIO
TITLE “Nevermore”
PERFORMER “Queen”
ISRC GBUM71100501
INDEX 01 00:00:00
FILE “17 – Queen – Las Palabras De Amor (The Words Of Love).wav” WAVE
TRACK 17 AUDIO
TITLE “Las Palabras De Amor (The Words Of Love)”
PERFORMER “Queen”
ISRC GBUM71103442
INDEX 01 00:00:00
FILE “18 – Queen – Who Wants To Live Forever.wav” WAVE
TRACK 18 AUDIO
TITLE “Who Wants To Live Forever”
PERFORMER “Queen”
ISRC GBUM71106193
INDEX 01 00:00:00

REM GENRE Rock
REM DATE 2014
REM DISCID 2410D612
REM COMMENT “ExactAudioCopy v1.0b3”
CATALOG 0050087317522
PERFORMER “Queen”
TITLE “Forever (Deluxe Edition) (Disc 2)”
FILE “01 – Queen – I Was Born To Love You.wav” WAVE
TRACK 01 AUDIO
TITLE “I Was Born To Love You”
PERFORMER “Queen”
ISRC GBUM71106226
INDEX 01 00:00:00
FILE “02 – Queen – Somebody To Love.wav” WAVE
TRACK 02 AUDIO
TITLE “Somebody To Love”
PERFORMER “Queen”
ISRC GBUM71404710
INDEX 01 00:00:00
FILE “03 – Queen – Crazy Little Thing Called Love.wav” WAVE
TRACK 03 AUDIO
TITLE “Crazy Little Thing Called Love”
PERFORMER “Queen”
ISRC GBUM71029612
INDEX 01 00:00:00
FILE “04 – Queen – Friends Will Be Friends.wav” WAVE
TRACK 04 AUDIO
TITLE “Friends Will Be Friends”
PERFORMER “Queen”
ISRC GBUM71029635
INDEX 01 00:00:00
FILE “05 – Queen – Jealousy.wav” WAVE
TRACK 05 AUDIO
TITLE “Jealousy”
PERFORMER “Queen”
ISRC GBUM71103320
INDEX 01 00:00:00
FILE “06 – Queen – One Year Of Love.wav” WAVE
TRACK 06 AUDIO
TITLE “One Year Of Love”
PERFORMER “Queen”
ISRC GBUM71106191
INDEX 01 00:00:00
FILE “07 – Queen – A Winter’s Tale.wav” WAVE
TRACK 07 AUDIO
TITLE “A Winter’s Tale”
PERFORMER “Queen”
ISRC GBUM71104208
INDEX 01 00:00:00
FILE “08 – Queen – ’39.wav” WAVE
TRACK 08 AUDIO
TITLE “’39”
PERFORMER “Queen”
ISRC GBUM71404712
INDEX 01 00:00:00
FILE “09 – Queen – Mother Love.wav” WAVE
TRACK 09 AUDIO
TITLE “Mother Love”
PERFORMER “Queen”
ISRC GBUM71106224
INDEX 01 00:00:00
FILE “10 – Queen – It’s A Hard Life.wav” WAVE
TRACK 10 AUDIO
TITLE “It’s A Hard Life”
PERFORMER “Queen”
ISRC GBUM71404713
INDEX 01 00:00:00
FILE “11 – Queen – Save Me.wav” WAVE
TRACK 11 AUDIO
TITLE “Save Me”
PERFORMER “Queen”
ISRC GBUM71404711
INDEX 01 00:00:00
FILE “12 – Queen – Made In Heaven.wav” WAVE
TRACK 12 AUDIO
TITLE “Made In Heaven”
PERFORMER “Queen”
ISRC GBUM71106223
INDEX 01 00:00:00
FILE “13 – Queen – Too Much Love Will Kill You.wav” WAVE
TRACK 13 AUDIO
TITLE “Too Much Love Will Kill You”
PERFORMER “Queen”
ISRC GBUM71103755
INDEX 01 00:00:00
FILE “14 – Queen – Sail Away Sweet Sister.wav” WAVE
TRACK 14 AUDIO
TITLE “Sail Away Sweet Sister”
PERFORMER “Queen”
ISRC GBUM71103489
INDEX 01 00:00:00
FILE “15 – Queen – The Miracle.wav” WAVE
TRACK 15 AUDIO
TITLE “The Miracle”
PERFORMER “Queen”
ISRC GBUM71404715
INDEX 01 00:00:00
FILE “16 – Queen – Is This The World We Created….wav” WAVE
TRACK 16 AUDIO
TITLE “Is This The World We Created…?”
PERFORMER “Queen”
ISRC GBUM71404714
INDEX 01 00:00:00
FILE “17 – Queen – In The Lap Of The Gods…Revisited.wav” WAVE
TRACK 17 AUDIO
TITLE “In The Lap Of The Gods…Revisited”
PERFORMER “Queen”
ISRC GBUM71100524
INDEX 01 00:00:00
FILE “18 – Queen – Forever.wav” WAVE
TRACK 18 AUDIO
TITLE “Forever”
PERFORMER “Queen”
ISRC GBUM71106198
INDEX 01 00:00:00


Leave a Reply

Your email address will not be published. Required fields are marked *

Enter the text from the image below
 

This site uses Akismet to reduce spam. Learn how your comment data is processed.