Queen – A Night At The Opera (Remastered)




No Cover available

Artist: Queen
Year: 1975/2011
Genre: Rock
Notes: Discogs
Add. Notes: Remastered
Watch Songs on: YouTube
Cover incl.: No
Encoder: FLAC
Bitrate: ~800 kBit/s (44.1 kHz/16 Bit/s)
Log & Cue incl.: Yes
Size: 402,9 MB
Password: “slam” (without ” “)


All Downloads/Hosters are compatible

Download 1
KatFile.com
Turbobit.net
FileFactory.com
Rapidgator.net
Download 2
KatFile.com
Turbobit.net
FileFactory.com
Rapidgator.net

Tracklist:

1-1 - Death On Two Legs (Dedicated To...... - 3:42
1-2 - Lazing On A Sunday Afternoon - 1:07
1-3 - I'm In Love With My Car - 3:05
1-4 - You're My Best Friend - 2:51
1-5 - '39 - 3:30
1-6 - Sweet Lady - 4:02
1-7 - Seaside Rendezvous - 2:14
1-8 - The Prophet's Song - 8:21
1-9 - Love Of My Life - 3:37
1-10 - Good Company - 3:23
1-11 - Bohemian Rhapsody - 5:54
1-12 - God Save The Queen - 1:13
 Bonus EP
2-1 - Keep Yourself Alive (Long-Lost Retake, June 1975) - 
4:03
2-2 - Bohemian Rhapsody (Operatic Section A Cappella 
Mix 2011) - 1:03
2-3 - You're My Best Friend (Backing Track Mix 2011) - 
2:57
2-4 - I'm In Love With My Car (Guitar & Vocal Mix 2011) - 
3:18
2-5 - '39 (Live At Earl's Court, June 1977) - 2:46
2-6 - Love Of My Life (South American Live Single, June 
1979) - 3:44

EAC-Log, CUE-Sheed & NFO:

Click to open spoiler
Exact Audio Copy V1.0 beta 1 from 15. November 2010

EAC extraction logfile from 16. March 2011, 17:41

Queen / A Night At The Opera (2011 Deluxe Edition – Bonus EP)

Used drive : PLEXTOR CD-R PREMIUM Adapter: 2 ID: 0

Read mode : Secure
Utilize accurate stream : Yes
Defeat audio cache : Yes
Make use of C2 pointers : No

Read offset correction : 30
Overread into Lead-In and Lead-Out : Yes
Fill up missing offset samples with silence : Yes
Delete leading and trailing silent blocks : No
Null samples used in CRC calculations : Yes
Used interface : Native Win32 interface for Win NT & 2000
Gap handling : Appended to previous track

Used output format : User Defined Encoder
Selected bitrate : 896 kBit/s
Quality : High
Add ID3 tag : No
Command line compressor : E:\Program Files (x86)\Exact Audio Copy\Flac\flac.exe
Additional command line options : -8 -V -T “ARTIST=%a” -T “TITLE=%t” -T “ALBUM=%g” -T “DATE=%y” -T “TRACKNUMBER=%n” -T “TOTALTRACKS=%x” -T “GENRE=%m” -T “ALBUMARTIST=%v” -T “ALBUM ARTIST=%v” -T “COMMENT=EAC Secure Mode, Test & Copy, AccurateRip, FLAC -8” %s

TOC of the extracted CD

Track | Start | Length | Start sector | End sector
———————————————————
1 | 0:00.00 | 4:05.05 | 0 | 18379
2 | 4:05.05 | 1:04.72 | 18380 | 23251
3 | 5:10.02 | 2:58.30 | 23252 | 36631
4 | 8:08.32 | 3:20.40 | 36632 | 51671
5 | 11:28.72 | 3:47.23 | 51672 | 68719
6 | 15:16.20 | 3:43.54 | 68720 | 85498

Track 1

Filename R:\EAC Rips\01 – Keep Yourself Alive (Long-Lost Retake).wav

Pre-gap length 0:00:02.00

Peak level 100.0 %
Extraction speed 4.1 X
Track quality 99.9 %
Test CRC A68D46D1
Copy CRC A68D46D1
Track not present in AccurateRip database
Copy OK

Track 2

Filename R:\EAC Rips\02 – Bohemian Rhapsody (Operatic Section A Cappella Mix).wav

Pre-gap length 0:00:00.68

Peak level 99.2 %
Extraction speed 3.9 X
Track quality 100.0 %
Test CRC 34BE0ECD
Copy CRC 34BE0ECD
Track not present in AccurateRip database
Copy OK

Track 3

Filename R:\EAC Rips\03 – You’re My Best Friend (Backing Track Mix).wav

Pre-gap length 0:00:01.52

Peak level 99.9 %
Extraction speed 5.5 X
Track quality 100.0 %
Test CRC B48FDB77
Copy CRC B48FDB77
Track not present in AccurateRip database
Copy OK

Track 4

Filename R:\EAC Rips\04 – I’m In Love With My Car (Guitar & Vocal Mix).wav

Pre-gap length 0:00:00.52

Peak level 96.7 %
Extraction speed 6.0 X
Track quality 100.0 %
Test CRC 8AF6FE85
Copy CRC 8AF6FE85
Track not present in AccurateRip database
Copy OK

Track 5

Filename R:\EAC Rips\05 – ’39 (Live At Earl’s Court).wav

Pre-gap length 0:00:02.08

Peak level 100.0 %
Extraction speed 6.5 X
Track quality 100.0 %
Test CRC 60E6E791
Copy CRC 60E6E791
Track not present in AccurateRip database
Copy OK

Track 6

Filename R:\EAC Rips\06 – Love Of My Life (South American Live Single).wav

Pre-gap length 0:00:00.84

Peak level 93.8 %
Extraction speed 7.8 X
Track quality 100.0 %
Test CRC 8DEB5AC5
Copy CRC 8DEB5AC5
Track not present in AccurateRip database
Copy OK

None of the tracks are present in the AccurateRip database

No errors occurred

End of status report

==== Log checksum DFEDA578501E5C821CFC89A35A3E3D28DB7B68960A21BC0C071288A8259363A1 ====

Exact Audio Copy V1.0 beta 1 from 15. November 2010

EAC extraction logfile from 16. March 2011, 17:24

Queen / A Night At The Opera (2011 Remaster)

Used drive : PLEXTOR CD-R PREMIUM Adapter: 2 ID: 0

Read mode : Secure
Utilize accurate stream : Yes
Defeat audio cache : Yes
Make use of C2 pointers : No

Read offset correction : 30
Overread into Lead-In and Lead-Out : Yes
Fill up missing offset samples with silence : Yes
Delete leading and trailing silent blocks : No
Null samples used in CRC calculations : Yes
Used interface : Native Win32 interface for Win NT & 2000
Gap handling : Appended to previous track

Used output format : User Defined Encoder
Selected bitrate : 896 kBit/s
Quality : High
Add ID3 tag : No
Command line compressor : E:\Program Files (x86)\Exact Audio Copy\Flac\flac.exe
Additional command line options : -8 -V -T “ARTIST=%a” -T “TITLE=%t” -T “ALBUM=%g” -T “DATE=%y” -T “TRACKNUMBER=%n” -T “TOTALTRACKS=%x” -T “GENRE=%m” -T “ALBUMARTIST=%v” -T “ALBUM ARTIST=%v” -T “COMMENT=EAC Secure Mode, Test & Copy, AccurateRip, FLAC -8” %s

TOC of the extracted CD

Track | Start | Length | Start sector | End sector
———————————————————
1 | 0:00.00 | 3:43.69 | 0 | 16793
2 | 3:43.69 | 1:07.30 | 16794 | 21848
3 | 4:51.24 | 3:04.67 | 21849 | 35715
4 | 7:56.16 | 2:52.33 | 35716 | 48648
5 | 10:48.49 | 3:30.60 | 48649 | 64458
6 | 14:19.34 | 4:03.52 | 64459 | 82735
7 | 18:23.11 | 2:19.66 | 82736 | 93226
8 | 20:43.02 | 8:20.72 | 93227 | 130798
9 | 29:03.74 | 3:38.66 | 130799 | 147214
10 | 32:42.65 | 3:23.33 | 147215 | 162472
11 | 36:06.23 | 5:54.24 | 162473 | 189046
12 | 42:00.47 | 1:15.25 | 189047 | 194696

Track 1

Filename R:\EAC Rips\01 – Death On Two Legs (Dedicated To…).wav

Pre-gap length 0:00:02.00

Peak level 95.6 %
Extraction speed 4.8 X
Track quality 100.0 %
Test CRC 8E2E3150
Copy CRC 8E2E3150
Track not present in AccurateRip database
Copy OK

Track 2

Filename R:\EAC Rips\02 – Lazing On A Sunday Afternoon.wav

Peak level 94.6 %
Extraction speed 2.3 X
Track quality 99.8 %
Test CRC 2A2897FA
Copy CRC 2A2897FA
Track not present in AccurateRip database
Copy OK

Track 3

Filename R:\EAC Rips\03 – I’m In Love With My Car.wav

Peak level 94.7 %
Extraction speed 5.3 X
Track quality 100.0 %
Test CRC 5EEF6FD1
Copy CRC 5EEF6FD1
Track not present in AccurateRip database
Copy OK

Track 4

Filename R:\EAC Rips\04 – You’re My Best Friend.wav

Peak level 94.5 %
Extraction speed 5.7 X
Track quality 100.0 %
Test CRC 9135083B
Copy CRC 9135083B
Track not present in AccurateRip database
Copy OK

Track 5

Filename R:\EAC Rips\05 – ’39.wav

Pre-gap length 0:00:01.65

Peak level 94.7 %
Extraction speed 6.1 X
Track quality 100.0 %
Test CRC 5B4E8565
Copy CRC 5B4E8565
Track not present in AccurateRip database
Copy OK

Track 6

Filename R:\EAC Rips\06 – Sweet Lady.wav

Peak level 95.2 %
Extraction speed 6.8 X
Track quality 100.0 %
Test CRC C90913E8
Copy CRC C90913E8
Track not present in AccurateRip database
Copy OK

Track 7

Filename R:\EAC Rips\07 – Seaside Rendezvous.wav

Pre-gap length 0:00:01.57

Peak level 94.7 %
Extraction speed 6.3 X
Track quality 100.0 %
Test CRC 0A0205AD
Copy CRC 0A0205AD
Track not present in AccurateRip database
Copy OK

Track 8

Filename R:\EAC Rips\08 – The Prophet’s Song.wav

Pre-gap length 0:00:05.76

Peak level 95.2 %
Extraction speed 8.1 X
Track quality 100.0 %
Test CRC C09B405E
Copy CRC C09B405E
Track not present in AccurateRip database
Copy OK

Track 9

Filename R:\EAC Rips\09 – Love Of My Life.wav

Peak level 94.1 %
Extraction speed 7.9 X
Track quality 100.0 %
Test CRC 48E7249C
Copy CRC 48E7249C
Track not present in AccurateRip database
Copy OK

Track 10

Filename R:\EAC Rips\10 – Good Company.wav

Pre-gap length 0:00:01.49

Peak level 94.3 %
Extraction speed 8.1 X
Track quality 100.0 %
Test CRC 9F2D72B4
Copy CRC 9F2D72B4
Track not present in AccurateRip database
Copy OK

Track 11

Filename R:\EAC Rips\11 – Bohemian Rhapsody.wav

Peak level 100.0 %
Extraction speed 7.6 X
Track quality 99.9 %
Test CRC 49D95EFF
Copy CRC 49D95EFF
Track not present in AccurateRip database
Copy OK

Track 12

Filename R:\EAC Rips\12 – God Save The Queen.wav

Peak level 85.5 %
Extraction speed 10.1 X
Track quality 100.0 %
Test CRC BF430E8E
Copy CRC BF430E8E
Track not present in AccurateRip database
Copy OK

None of the tracks are present in the AccurateRip database

No errors occurred

End of status report

==== Log checksum 5F1002B84556F94FF02AA78EA83F828F912281445C6DE5FCA7DAE398D2FB3962 ====

REM GENRE Rock
REM DATE 1975
REM DISCID 9A0A230C
REM COMMENT “ExactAudioCopy v1.0b1”
PERFORMER “Queen”
TITLE “A Night At The Opera (2011 Deluxe Edition – Disc 1)”
FILE “01 – Death On Two Legs (Dedicated To…).wav” WAVE
TRACK 01 AUDIO
TITLE “Death On Two Legs (Dedicated To…)”
PERFORMER “Queen”
INDEX 01 00:00:00
FILE “02 – Lazing On A Sunday Afternoon.wav” WAVE
TRACK 02 AUDIO
TITLE “Lazing On A Sunday Afternoon”
PERFORMER “Queen”
INDEX 01 00:00:00
FILE “03 – I’m In Love With My Car.wav” WAVE
TRACK 03 AUDIO
TITLE “I’m In Love With My Car”
PERFORMER “Queen”
INDEX 01 00:00:00
FILE “04 – You’re My Best Friend.wav” WAVE
TRACK 04 AUDIO
TITLE “You’re My Best Friend”
PERFORMER “Queen”
INDEX 01 00:00:00
TRACK 05 AUDIO
TITLE “’39”
PERFORMER “Queen”
INDEX 00 02:50:59
FILE “05 – ’39.wav” WAVE
INDEX 01 00:00:00
FILE “06 – Sweet Lady.wav” WAVE
TRACK 06 AUDIO
TITLE “Sweet Lady”
PERFORMER “Queen”
INDEX 01 00:00:00
TRACK 07 AUDIO
TITLE “Seaside Rendezvous”
PERFORMER “Queen”
INDEX 00 04:02:09
FILE “07 – Seaside Rendezvous.wav” WAVE
INDEX 01 00:00:00
TRACK 08 AUDIO
TITLE “The Prophet’s Song”
PERFORMER “Queen”
INDEX 00 02:14:09
FILE “08 – The Prophet’s Song.wav” WAVE
INDEX 01 00:00:00
FILE “09 – Love Of My Life.wav” WAVE
TRACK 09 AUDIO
TITLE “Love Of My Life”
PERFORMER “Queen”
INDEX 01 00:00:00
TRACK 10 AUDIO
TITLE “Good Company”
PERFORMER “Queen”
INDEX 00 03:37:29
FILE “10 – Good Company.wav” WAVE
INDEX 01 00:00:00
FILE “11 – Bohemian Rhapsody.wav” WAVE
TRACK 11 AUDIO
TITLE “Bohemian Rhapsody”
PERFORMER “Queen”
INDEX 01 00:00:00
FILE “12 – God Save The Queen.wav” WAVE
TRACK 12 AUDIO
TITLE “God Save The Queen”
PERFORMER “Queen”
INDEX 01 00:00:00

REM GENRE Rock
REM DATE 1975
REM DISCID 43047306
REM COMMENT “ExactAudioCopy v1.0b1”
PERFORMER “Queen”
TITLE “A Night At The Opera (2011 Deluxe Edition – Bonus EP)”
FILE “01 – Keep Yourself Alive (Long-Lost Retake).wav” WAVE
TRACK 01 AUDIO
TITLE “Keep Yourself Alive (Long-Lost Retake)”
PERFORMER “Queen”
INDEX 01 00:00:00
TRACK 02 AUDIO
TITLE “Bohemian Rhapsody (Operatic Section A Cappella Mix)”
PERFORMER “Queen”
INDEX 00 04:04:29
FILE “02 – Bohemian Rhapsody (Operatic Section A Cappella Mix).wav” WAVE
INDEX 01 00:00:00
TRACK 03 AUDIO
TITLE “You’re My Best Friend (Backing Track Mix)”
PERFORMER “Queen”
INDEX 00 01:03:33
FILE “03 – You’re My Best Friend (Backing Track Mix).wav” WAVE
INDEX 01 00:00:00
TRACK 04 AUDIO
TITLE “I’m In Love With My Car (Guitar & Vocal Mix)”
PERFORMER “Queen”
INDEX 00 02:57:66
FILE “04 – I’m In Love With My Car (Guitar & Vocal Mix).wav” WAVE
INDEX 01 00:00:00
TRACK 05 AUDIO
TITLE “’39 (Live At Earl’s Court)”
PERFORMER “Queen”
INDEX 00 03:18:34
FILE “05 – ’39 (Live At Earl’s Court).wav” WAVE
INDEX 01 00:00:00
TRACK 06 AUDIO
TITLE “Love Of My Life (South American Live Single)”
PERFORMER “Queen”
INDEX 00 03:46:35
FILE “06 – Love Of My Life (South American Live Single).wav” WAVE
INDEX 01 00:00:00


Leave a Reply

Your email address will not be published. Required fields are marked *

This site uses Akismet to reduce spam. Learn how your comment data is processed.