Queen – A Day At The Races (Remastered)




No Cover available

Artist: Queen
Year: 1976/2011
Genre: Rock
Notes: Discogs
Add. Notes: Remastered
Watch Songs on: YouTube
Cover incl.: No
Encoder: FLAC
Bitrate: ~700 kBit/s (44.1 kHz/16 Bit/s)
Log & Cue incl.: Yes
Size: 464,8 MB
Password: “slam” (without ” “)


All Downloads/Hosters are compatible

Download 1
KatFile.com
Turbobit.net
Rapidgator.net
Download 2
KatFile.com
Turbobit.net
Rapidgator.net

Tracklist:

1-1 - Tie Your Mother Down - 4:47
1-2 - You Take My Breath Away - 5:08
1-3 - Long Away - 3:33
1-4 - The Millionaire Waltz - 4:54
1-5 - You And I - 3:24
1-6 - Somebody To Love - 4:55
1-7 - White Man - 4:58
1-8 - Good Old Fashioned Lover Boy - 2:54
1-9 - Drowse - 3:44
1-10 - Teo Torriatte (Let Us Cling Together) - 5:52
Bonus EP
2-1 - Tie Your Mother Down (Backing Track Mix 2011) - 
3:48
2-2 - Somebody To Love (Live At Milton Keynes Bowl, 
June 1982) - 7:53
2-3 - You Take My Breath Away (Live In Hyde Park, 
September 1976) - 3:06
2-4 - Good Old Fashioned Lover Boy (Top Of The Pops, 
July 1977) (Mono) - 2:51
2-5 - Teo Torriatte (Let Us Cling Together) (HD Mix) - 
4:44

EAC-Log, CUE-Sheed & NFO:

Click to open spoiler
Exact Audio Copy V1.0 beta 1 from 15. November 2010

EAC extraction logfile from 15. March 2011, 23:46

Queen / A Day At The Races

Used drive : Optiarc DVD RW AD-7590S Adapter: 2 ID: 0

Read mode : Secure
Utilize accurate stream : Yes
Defeat audio cache : Yes
Make use of C2 pointers : No

Read offset correction : 48
Overread into Lead-In and Lead-Out : No
Fill up missing offset samples with silence : Yes
Delete leading and trailing silent blocks : No
Null samples used in CRC calculations : Yes
Used interface : Native Win32 interface for Win NT & 2000
Gap handling : Appended to previous track

Used output format : User Defined Encoder
Selected bitrate : 768 kBit/s
Quality : High
Add ID3 tag : No
Command line compressor : C:\Program Files\Exact Audio Copy\Flac\flac.exe
Additional command line options : -8 -V -T “ARTIST=%a” -T “TITLE=%t” -T “ALBUM=%g” -T “DATE=%y” -T “TRACKNUMBER=%n” -T “TOTALTRACKS=%x” -T “GENRE=%m” -T “ALBUMARTIST=%v” -T “ALBUM ARTIST=%v” -T “COMMENT=EAC Secure Mode, Test & Copy, AccurateRip, FLAC -8” %s

TOC of the extracted CD

Track | Start | Length | Start sector | End sector
———————————————————
1 | 0:00.00 | 4:50.25 | 0 | 21774
2 | 4:50.25 | 5:06.36 | 21775 | 44760
3 | 9:56.61 | 3:33.31 | 44761 | 60766
4 | 13:30.17 | 4:56.35 | 60767 | 83001
5 | 18:26.52 | 3:29.50 | 83002 | 98726
6 | 21:56.27 | 4:58.70 | 98727 | 121146
7 | 26:55.22 | 4:59.36 | 121147 | 143607
8 | 31:54.58 | 2:53.13 | 143608 | 156595
9 | 34:47.71 | 3:45.68 | 156596 | 173538
10 | 38:33.64 | 5:55.49 | 173539 | 200212

Track 1

Filename C:\Addis Gugsa Is Ethiopian\01 – Tie Your Mother Down.wav

Pre-gap length 0:00:02.00

Peak level 99.5 %
Extraction speed 1.2 X
Track quality 100.0 %
Test CRC E7DFB1CF
Copy CRC E7DFB1CF
Track not present in AccurateRip database
Copy OK

Track 2

Filename C:\Addis Gugsa Is Ethiopian\02 – You Take My Breath Away.wav

Pre-gap length 0:00:02.68

Peak level 98.8 %
Extraction speed 1.2 X
Track quality 99.9 %
Test CRC 4F419AEA
Copy CRC 4F419AEA
Track not present in AccurateRip database
Copy OK

Track 3

Filename C:\Addis Gugsa Is Ethiopian\03 – Long Away.wav

Peak level 100.0 %
Extraction speed 1.4 X
Track quality 100.0 %
Test CRC 095F5BD3
Copy CRC 095F5BD3
Track not present in AccurateRip database
Copy OK

Track 4

Filename C:\Addis Gugsa Is Ethiopian\04 – The Millionaire Waltz.wav

Peak level 99.8 %
Extraction speed 1.6 X
Track quality 100.0 %
Test CRC 8150D1E3
Copy CRC 8150D1E3
Track not present in AccurateRip database
Copy OK

Track 5

Filename C:\Addis Gugsa Is Ethiopian\05 – You And I.wav

Pre-gap length 0:00:01.10

Peak level 100.0 %
Extraction speed 1.6 X
Track quality 100.0 %
Test CRC AC35D7B5
Copy CRC AC35D7B5
Track not present in AccurateRip database
Copy OK

Track 6

Filename C:\Addis Gugsa Is Ethiopian\06 – Somebody To Love.wav

Pre-gap length 0:00:03.39

Peak level 99.0 %
Extraction speed 1.8 X
Track quality 100.0 %
Test CRC A757D01E
Copy CRC A757D01E
Track not present in AccurateRip database
Copy OK

Track 7

Filename C:\Addis Gugsa Is Ethiopian\07 – White Man.wav

Pre-gap length 0:00:02.34

Peak level 98.9 %
Extraction speed 1.9 X
Track quality 100.0 %
Test CRC 80EEFB87
Copy CRC 80EEFB87
Track not present in AccurateRip database
Copy OK

Track 8

Filename C:\Addis Gugsa Is Ethiopian\08 – Good Old-Fashioned Lover Boy.wav

Pre-gap length 0:00:01.27

Peak level 99.8 %
Extraction speed 1.8 X
Track quality 100.0 %
Test CRC E5BC5BCA
Copy CRC E5BC5BCA
Track not present in AccurateRip database
Copy OK

Track 9

Filename C:\Addis Gugsa Is Ethiopian\09 – Drowse.wav

Peak level 100.0 %
Extraction speed 1.9 X
Track quality 100.0 %
Test CRC 045CC503
Copy CRC 045CC503
Track not present in AccurateRip database
Copy OK

Track 10

Filename C:\Addis Gugsa Is Ethiopian\10 – Teo Torriatte (Let Us Cling Together).wav

Pre-gap length 0:00:02.46

Peak level 99.0 %
Extraction speed 2.0 X
Track quality 99.9 %
Test CRC 682CB859
Copy CRC 682CB859
Track not present in AccurateRip database
Copy OK

None of the tracks are present in the AccurateRip database

No errors occurred

End of status report

==== Log checksum 077FE51DE95D411565E365A2F4185FF146D52C6EA78E093C1B3C125CA342394E ====

Exact Audio Copy V1.0 beta 1 from 15. November 2010

EAC extraction logfile from 16. March 2011, 0:36

Queen / A Day At The Races (Bonus EP)

Used drive : Optiarc DVD RW AD-7590S Adapter: 2 ID: 0

Read mode : Secure
Utilize accurate stream : Yes
Defeat audio cache : Yes
Make use of C2 pointers : No

Read offset correction : 48
Overread into Lead-In and Lead-Out : No
Fill up missing offset samples with silence : Yes
Delete leading and trailing silent blocks : No
Null samples used in CRC calculations : Yes
Used interface : Native Win32 interface for Win NT & 2000
Gap handling : Appended to previous track

Used output format : User Defined Encoder
Selected bitrate : 768 kBit/s
Quality : High
Add ID3 tag : No
Command line compressor : C:\Program Files\Exact Audio Copy\Flac\flac.exe
Additional command line options : -8 -V -T “ARTIST=%a” -T “TITLE=%t” -T “ALBUM=%g” -T “DATE=%y” -T “TRACKNUMBER=%n” -T “TOTALTRACKS=%x” -T “GENRE=%m” -T “ALBUMARTIST=%v” -T “ALBUM ARTIST=%v” -T “COMMENT=EAC Secure Mode, Test & Copy, AccurateRip, FLAC -8” %s

TOC of the extracted CD

Track | Start | Length | Start sector | End sector
———————————————————
1 | 0:00.00 | 3:48.65 | 0 | 17164
2 | 3:48.65 | 7:57.16 | 17165 | 52955
3 | 11:46.06 | 3:07.16 | 52956 | 66996
4 | 14:53.22 | 2:52.58 | 66997 | 79954
5 | 17:46.05 | 4:47.29 | 79955 | 101508

Track 1

Filename C:\Addis Gugsa Is Ethiopian\01 – Tie Your Mother Down (Backing Track Mix 2011).wav

Pre-gap length 0:00:02.00

Peak level 100.0 %
Extraction speed 2.8 X
Track quality 100.0 %
Test CRC 28D734C6
Copy CRC 28D734C6
Track not present in AccurateRip database
Copy OK

Track 2

Filename C:\Addis Gugsa Is Ethiopian\02 – Somebody To Love (Live At Milton Keynes Bowl – June 1982).wav

Pre-gap length 0:00:00.60

Peak level 100.0 %
Extraction speed 3.4 X
Track quality 100.0 %
Test CRC 9B5963BE
Copy CRC 9B5963BE
Track not present in AccurateRip database
Copy OK

Track 3

Filename C:\Addis Gugsa Is Ethiopian\03 – You Take My Breath Away (Live In Hyde Park – September 1976).wav

Pre-gap length 0:00:01.63

Peak level 99.7 %
Extraction speed 3.4 X
Track quality 100.0 %
Test CRC 4C9FE95E
Copy CRC 4C9FE95E
Track not present in AccurateRip database
Copy OK

Track 4

Filename C:\Addis Gugsa Is Ethiopian\04 – Good Old Fashioned Lover Boy) (Top Of The Pop – July 1977) (Mono).wav

Pre-gap length 0:00:00.32

Peak level 100.0 %
Extraction speed 3.5 X
Track quality 100.0 %
Test CRC 41A17E18
Copy CRC 41A17E18
Track not present in AccurateRip database
Copy OK

Track 5

Filename C:\Addis Gugsa Is Ethiopian\05 – Teo Torriatte (Let Us Cling Together) (HD Mix).wav

Pre-gap length 0:00:01.40

Peak level 100.0 %
Extraction speed 4.0 X
Track quality 100.0 %
Test CRC 6C39BA70
Copy CRC 6C39BA70
Track not present in AccurateRip database
Copy OK

None of the tracks are present in the AccurateRip database

No errors occurred

End of status report

==== Log checksum DEF66FC4AA2BB66240C6A50287D9E797FC62A81A5F5757A378A0D0B9B4CE38FE ====

REM GENRE Rock
REM DATE 1976
REM DISCID 850A6D0A
REM COMMENT “ExactAudioCopy v1.0b1”
PERFORMER “Queen”
TITLE “A Day At The Races”
FILE “01 – Tie Your Mother Down.wav” WAVE
TRACK 01 AUDIO
TITLE “Tie Your Mother Down”
PERFORMER “Queen”
INDEX 01 00:00:00
INDEX 02 01:03:05
TRACK 02 AUDIO
TITLE “You Take My Breath Away”
PERFORMER “Queen”
INDEX 00 04:47:32
FILE “02 – You Take My Breath Away.wav” WAVE
INDEX 01 00:00:00
FILE “03 – Long Away.wav” WAVE
TRACK 03 AUDIO
TITLE “Long Away”
PERFORMER “Queen”
INDEX 01 00:00:00
FILE “04 – The Millionaire Waltz.wav” WAVE
TRACK 04 AUDIO
TITLE “The Millionaire Waltz”
PERFORMER “Queen”
INDEX 01 00:00:00
TRACK 05 AUDIO
TITLE “You And I”
PERFORMER “Queen”
INDEX 00 04:55:25
FILE “05 – You And I.wav” WAVE
INDEX 01 00:00:00
TRACK 06 AUDIO
TITLE “Somebody To Love”
PERFORMER “Queen”
INDEX 00 03:26:11
FILE “06 – Somebody To Love.wav” WAVE
INDEX 01 00:00:00
TRACK 07 AUDIO
TITLE “White Man”
PERFORMER “Queen”
INDEX 00 04:56:36
FILE “07 – White Man.wav” WAVE
INDEX 01 00:00:00
TRACK 08 AUDIO
TITLE “Good Old-Fashioned Lover Boy”
PERFORMER “Queen”
INDEX 00 04:58:09
FILE “08 – Good Old-Fashioned Lover Boy.wav” WAVE
INDEX 01 00:00:00
FILE “09 – Drowse.wav” WAVE
TRACK 09 AUDIO
TITLE “Drowse”
PERFORMER “Queen”
INDEX 01 00:00:00
TRACK 10 AUDIO
TITLE “Teo Torriatte (Let Us Cling Together)”
PERFORMER “Queen”
INDEX 00 03:43:22
FILE “10 – Teo Torriatte (Let Us Cling Together).wav” WAVE
INDEX 01 00:00:00
INDEX 02 04:37:10

REM GENRE Rock
REM DATE 2011
REM DISCID 3B054905
REM COMMENT “ExactAudioCopy v1.0b1”
PERFORMER “Queen”
TITLE “A Day At The Races (Bonus EP)”
FILE “01 – Tie Your Mother Down (Backing Track Mix 2011).wav” WAVE
TRACK 01 AUDIO
TITLE “Tie Your Mother Down (Backing Track Mix 2011)”
PERFORMER “Queen”
INDEX 01 00:00:00
TRACK 02 AUDIO
TITLE “Somebody To Love (Live At Milton Keynes Bowl – June 1982)”
PERFORMER “Queen”
INDEX 00 03:48:05
FILE “02 – Somebody To Love (Live At Milton Keynes Bowl – June 1982).wav” WAVE
INDEX 01 00:00:00
TRACK 03 AUDIO
TITLE “You Take My Breath Away (Live In Hyde Park – September 1976)”
PERFORMER “Queen”
INDEX 00 07:55:28
FILE “03 – You Take My Breath Away (Live In Hyde Park – September 1976).wav” WAVE
INDEX 01 00:00:00
TRACK 04 AUDIO
TITLE “Good Old Fashioned Lover Boy) (Top Of The Pop – July 1977) (Mono)”
PERFORMER “Queen”
INDEX 00 03:06:59
FILE “04 – Good Old Fashioned Lover Boy) (Top Of The Pop – July 1977) (Mono).wav” WAVE
INDEX 01 00:00:00
TRACK 05 AUDIO
TITLE “Teo Torriatte (Let Us Cling Together) (HD Mix)”
PERFORMER “Queen”
INDEX 00 02:51:18
FILE “05 – Teo Torriatte (Let Us Cling Together) (HD Mix).wav” WAVE
INDEX 01 00:00:00


Leave a Reply

Your email address will not be published. Required fields are marked *

This site uses Akismet to reduce spam. Learn how your comment data is processed.