Puhdys – Puhdys (Russian Edition)




[Total: 0    Average: 0/5]

Artist: Puhdys
Year: 1978/2006
Genre: Rock
Notes: Discogs
Add. Notes: Russian Edition
Cover incl.: Yes
Encoder: FLAC
Bitrate: (44.1 kHz/16 Bit/s)
Log & Cue incl.: Yes
Size: 229 MB
Password: “slam” (without ” “)


All Downloads/Hosters are compatible

Download 1
KatFile.com
Turbobit.net
FileFactory.com
Rapidgator.net
Download 2
KatFile.com
Turbobit.net
FileFactory.com
Rapidgator.net
Download 3
KatFile.com
Turbobit.net
FileFactory.com
Rapidgator.net

Tracklist:

1 Когда Умирают Мечты · Wenn Träume Sterben 3:59
2 Ловцы Жемчуга · Perlenfischer 4:26
3 Буревестник · Sturmvogel 4:36
4 Время Жизни · Lebenszeit 3:26
5 Путешествие К Центру Земли · Reise Zum Mittelpunkt Der Erde 5:28
6 Стайер · Langstreckenlauf 4:30
7 Икар · Ikarus 3:58
8 Если Ты Спишь · Manchmal Im Schlaf 4:07

EAC-Log, CUE-Sheed & NFO:

Click to open spoiler
Exact Audio Copy V0.99 prebeta 4 from 23. January 2008

EAC extraction logfile from 21. June 2009, 8:37

Puhdys / Puhdys – Melodia

Used drive : Optiarc DVD RW AD-7170A Adapter: 3 ID: 0

Read mode : Secure
Utilize accurate stream : Yes
Defeat audio cache : Yes
Make use of C2 pointers : No

Read offset correction : 48
Overread into Lead-In and Lead-Out : No
Fill up missing offset samples with silence : Yes
Delete leading and trailing silent blocks : No
Null samples used in CRC calculations : Yes
Used interface : Installed external ASPI interface

Used output format : Internal WAV Routines
Sample format : 44.100 Hz; 16 Bit; Stereo

TOC of the extracted CD

Track | Start | Length | Start sector | End sector
———————————————————
1 | 0:00.00 | 4:00.08 | 0 | 18007
2 | 4:00.08 | 4:40.30 | 18008 | 39037
3 | 8:40.38 | 4:20.74 | 39038 | 58611
4 | 13:01.37 | 3:21.10 | 58612 | 73696
5 | 16:22.47 | 5:52.18 | 73697 | 100114
6 | 22:14.65 | 4:25.03 | 100115 | 119992
7 | 26:39.68 | 4:46.02 | 119993 | 141444
8 | 31:25.70 | 4:25.33 | 141445 | 161352

Range status and errors

Selected range

Filename C:\Documents and Settings\Мои документы\Puhdys – Puhdys-Melodia.by.rat.eac.flac.Israel-club.my1.ru\Puhdys – Puhdys-Melodia.by.rat.eac.flac.Israel-club.my1.ru.wav

Peak level 100.0 %
Range quality 100.0 %
Copy CRC 9C43E36D
Copy OK

No errors occurred

End of status report

REM GENRE Rock
REM DATE 1978
REM DISCID 67086708
REM COMMENT “ExactAudioCopy v0.99pb4”
PERFORMER “Puhdys ”
TITLE “Puhdys – Melodia”
FILE “Puhdys – Puhdys-Melodia.wav” WAVE
TRACK 01 AUDIO
TITLE “Wenn Traume Sterben – Когда умирают мечты”
PERFORMER “Puhdys ”
FLAGS DCP
INDEX 01 00:00:00
TRACK 02 AUDIO
TITLE “Perlenfischer – Ловцы жемчуга”
PERFORMER “Puhdys ”
FLAGS DCP
INDEX 01 04:00:08
TRACK 03 AUDIO
TITLE “Sturmvogel – Буревестник”
PERFORMER “Puhdys ”
FLAGS DCP
INDEX 01 08:40:38
TRACK 04 AUDIO
TITLE “Lebenszeit – Время жизни”
PERFORMER “Puhdys ”
FLAGS DCP
INDEX 01 13:01:37
TRACK 05 AUDIO
TITLE “Reise zum Mittelpunkt der Erde – Путешествие к центру Земли”
PERFORMER “Puhdys ”
FLAGS DCP
INDEX 01 16:22:47
TRACK 06 AUDIO
TITLE “Langstreckenlauf – Стайер”
PERFORMER “Puhdys ”
FLAGS DCP
INDEX 01 22:14:65
TRACK 07 AUDIO
TITLE “Ikarus – Икар”
PERFORMER “Puhdys ”
FLAGS DCP
INDEX 01 26:39:68
TRACK 08 AUDIO
TITLE “Manchmal im Schlaf – Если ты спишь”
PERFORMER “Puhdys ”
FLAGS DCP
INDEX 01 31:25:70


Spread the Download

Leave a Reply

Your email address will not be published. Required fields are marked *

Enter the text from the image below
 

This site uses Akismet to reduce spam. Learn how your comment data is processed.