Psychotic Waltz – The God-Shaped Void




No Cover available

Artist: Psychotic Waltz
Year: 2020
Genre: Metal
Notes: Discogs
Add. Notes:
Watch Songs on: YouTube
Cover incl.: Yes
Encoder: FLAC
Bitrate: ~1000 kBit/s (44.1 kHz/16 Bit/s)
Log & Cue incl.: Yes/Yes
Size: 428,7 MB
Password: “slam” (without ” “)


All Downloads/Hosters are compatible

Download 1
KatFile.com
Turbobit.net
Rapidgator.net
FileFactory.com
Download 2
KatFile.com
Turbobit.net
Rapidgator.net
FileFactory.com

Tracklist:

01. Devils and Angels (6:30)
02. Stranded (4:49)
03. Back to Black (3:53)
04. All the Bad Men (3:59)
05. The Fallen (5:49)
06. While the Spiders Spin (5:49)
07. Pull the String (4:54)
08. Demystified (5:13)
09. Season of the Swarm (5:58)
10. Sisters of the Dawn (6:41)
11. In the Silence (5:16)

EAC-Log, CUE-Sheed & NFO:

Click to open spoiler
Exact Audio Copy V1.3 from 2. September 2016

EAC extraction logfile from 14. February 2020, 12:37

Psychotic Waltz / The God-Shaped Void

Used drive : HL-DT-STDVDRAM GP50NB41 Adapter: 1 ID: 0

Read mode : Secure
Utilize accurate stream : Yes
Defeat audio cache : Yes
Make use of C2 pointers : No

Read offset correction : 6
Overread into Lead-In and Lead-Out : No
Fill up missing offset samples with silence : Yes
Delete leading and trailing silent blocks : No
Null samples used in CRC calculations : Yes
Used interface : Native Win32 interface for Win NT & 2000
Gap handling : Appended to previous track

Used output format : User Defined Encoder
Selected bitrate : 1024 kBit/s
Quality : High
Add ID3 tag : No
Command line compressor : C:\Program Files (x86)\Exact Audio Copy\Flac\flac.exe
Additional command line options : -8 -V -T “ARTIST=%artist%” -T “TITLE=%title%” -T “ALBUM=%albumtitle%” -T “DATE=%year%” -T “TRACKNUMBER=%tracknr%” -T “GENRE=%genre%” -T “PERFORMER=%albuminterpret%” -T “COMPOSER=%composer%” %haslyrics%–tag-from-file=LYRICS=”%lyricsfile%”%haslyrics% -T “ALBUMARTIST=%albumartist%” -T “DISCNUMBER=%cdnumber%” -T “TOTALDISCS=%totalcds%” -T “TOTALTRACKS=%numtracks%” -T “COMMENT=%comment%” %source% -o %dest%

TOC of the extracted CD

Track | Start | Length | Start sector | End sector
———————————————————
1 | 0:00.00 | 6:29.47 | 0 | 29221
2 | 6:29.47 | 4:49.05 | 29222 | 50901
3 | 11:18.52 | 3:52.69 | 50902 | 68370
4 | 15:11.46 | 3:59.00 | 68371 | 86295
5 | 19:10.46 | 5:49.35 | 86296 | 112505
6 | 25:00.06 | 5:49.05 | 112506 | 138685
7 | 30:49.11 | 4:54.06 | 138686 | 160741
8 | 35:43.17 | 5:12.45 | 160742 | 184186
9 | 40:55.62 | 5:57.47 | 184187 | 211008
10 | 46:53.34 | 6:41.18 | 211009 | 241101
11 | 53:34.52 | 5:16.23 | 241102 | 264824

Track 1

Filename C:\Psychotic Waltz – The God-Shaped Void (2020) [IOMLP 544 CD] {FLAC}\01 – Devils and Angels.wav

Pre-gap length 0:00:02.00

Peak level 96.3 %
Extraction speed 1.2 X
Track quality 100.0 %
Test CRC E4A2E632
Copy CRC E4A2E632
Track not present in AccurateRip database
Copy OK

Track 2

Filename C:\Psychotic Waltz – The God-Shaped Void (2020) [IOMLP 544 CD] {FLAC}\02 – Stranded.wav

Peak level 96.6 %
Extraction speed 1.4 X
Track quality 100.0 %
Test CRC B4FDC1E4
Copy CRC B4FDC1E4
Track not present in AccurateRip database
Copy OK

Track 3

Filename C:\Psychotic Waltz – The God-Shaped Void (2020) [IOMLP 544 CD] {FLAC}\03 – Back to Black.wav

Peak level 96.3 %
Extraction speed 1.5 X
Track quality 100.0 %
Test CRC 8FB31165
Copy CRC 8FB31165
Track not present in AccurateRip database
Copy OK

Track 4

Filename C:\Psychotic Waltz – The God-Shaped Void (2020) [IOMLP 544 CD] {FLAC}\04 – All the Bad Men.wav

Peak level 96.3 %
Extraction speed 1.6 X
Track quality 100.0 %
Test CRC 72660D4A
Copy CRC 72660D4A
Track not present in AccurateRip database
Copy OK

Track 5

Filename C:\Psychotic Waltz – The God-Shaped Void (2020) [IOMLP 544 CD] {FLAC}\05 – The Fallen.wav

Peak level 96.3 %
Extraction speed 1.7 X
Track quality 100.0 %
Test CRC EBF5AAE2
Copy CRC EBF5AAE2
Track not present in AccurateRip database
Copy OK

Track 6

Filename C:\Psychotic Waltz – The God-Shaped Void (2020) [IOMLP 544 CD] {FLAC}\06 – While the Spiders Spin.wav

Peak level 96.3 %
Extraction speed 1.9 X
Track quality 100.0 %
Test CRC 08241585
Copy CRC 08241585
Track not present in AccurateRip database
Copy OK

Track 7

Filename C:\Psychotic Waltz – The God-Shaped Void (2020) [IOMLP 544 CD] {FLAC}\07 – Pull the String.wav

Peak level 96.3 %
Extraction speed 1.9 X
Track quality 100.0 %
Test CRC 4DD9A01C
Copy CRC 4DD9A01C
Track not present in AccurateRip database
Copy OK

Track 8

Filename C:\Psychotic Waltz – The God-Shaped Void (2020) [IOMLP 544 CD] {FLAC}\08 – Demystified.wav

Peak level 96.3 %
Extraction speed 2.1 X
Track quality 100.0 %
Test CRC 6688623A
Copy CRC 6688623A
Track not present in AccurateRip database
Copy OK

Track 9

Filename C:\Psychotic Waltz – The God-Shaped Void (2020) [IOMLP 544 CD] {FLAC}\09 – Season of the Swarm.wav

Peak level 96.3 %
Extraction speed 2.2 X
Track quality 100.0 %
Test CRC 06D8904D
Copy CRC 06D8904D
Track not present in AccurateRip database
Copy OK

Track 10

Filename C:\Psychotic Waltz – The God-Shaped Void (2020) [IOMLP 544 CD] {FLAC}\10 – Sisters of the Dawn.wav

Peak level 96.3 %
Extraction speed 2.4 X
Track quality 100.0 %
Test CRC 77C048D7
Copy CRC 77C048D7
Track not present in AccurateRip database
Copy OK

Track 11

Filename C:\Psychotic Waltz – The God-Shaped Void (2020) [IOMLP 544 CD] {FLAC}\11 – In the Silence.wav

Peak level 96.3 %
Extraction speed 2.4 X
Track quality 100.0 %
Test CRC 4A71BCB4
Copy CRC 4A71BCB4
Track not present in AccurateRip database
Copy OK

None of the tracks are present in the AccurateRip database

No errors occurred

End of status report

—- CUETools DB Plugin V2.1.6

[CTDB TOCID: rU2fc5VZ81kKbGE8D2i3zqaVW3s-] found
Submit result: rU2fc5VZ81kKbGE8D2i3zqaVW3s- has been confirmed
Track | CTDB Status
1 | (2/2) Accurately ripped
2 | (2/2) Accurately ripped
3 | (2/2) Accurately ripped
4 | (2/2) Accurately ripped
5 | (2/2) Accurately ripped
6 | (2/2) Accurately ripped
7 | (2/2) Accurately ripped
8 | (2/2) Accurately ripped
9 | (2/2) Accurately ripped
10 | (2/2) Accurately ripped
11 | (2/2) Accurately ripped

==== Log checksum FCDC3365496D8CEE9EAF2AB12BA47AD7FC78301C159932E73CD5D470E81C4CD2 ====

REM GENRE Progressive Metal
REM DATE 2020
REM DISCID 840DCB0B
REM COMMENT “ExactAudioCopy v1.3”
PERFORMER “Psychotic Waltz”
TITLE “The God-Shaped Void”
REM COMPOSER “”
FILE “01 Devils and Angels.flac” WAVE
TRACK 01 AUDIO
TITLE “Devils and Angels”
PERFORMER “Psychotic Waltz”
REM COMPOSER “”
ISRC GBDHC2013101
INDEX 01 00:00:00
FILE “02 Stranded.flac” WAVE
TRACK 02 AUDIO
TITLE “Stranded”
PERFORMER “Psychotic Waltz”
REM COMPOSER “”
ISRC GBDHC2013102
INDEX 01 00:00:00
FILE “03 Back to Black.flac” WAVE
TRACK 03 AUDIO
TITLE “Back to Black”
PERFORMER “Psychotic Waltz”
REM COMPOSER “”
ISRC GBDHC2013103
INDEX 01 00:00:00
FILE “04 All the Bad Men.flac” WAVE
TRACK 04 AUDIO
TITLE “All the Bad Men”
PERFORMER “Psychotic Waltz”
REM COMPOSER “”
ISRC GBDHC2013104
INDEX 01 00:00:00
FILE “05 The Fallen.flac” WAVE
TRACK 05 AUDIO
TITLE “The Fallen”
PERFORMER “Psychotic Waltz”
REM COMPOSER “”
ISRC GBDHC2013105
INDEX 01 00:00:00
FILE “06 While the Spiders Spin.flac” WAVE
TRACK 06 AUDIO
TITLE “While the Spiders Spin”
PERFORMER “Psychotic Waltz”
REM COMPOSER “”
ISRC GBDHC2013106
INDEX 01 00:00:00
FILE “07 Pull the String.flac” WAVE
TRACK 07 AUDIO
TITLE “Pull the String”
PERFORMER “Psychotic Waltz”
REM COMPOSER “”
ISRC GBDHC2013107
INDEX 01 00:00:00
FILE “08 Demystified.flac” WAVE
TRACK 08 AUDIO
TITLE “Demystified”
PERFORMER “Psychotic Waltz”
REM COMPOSER “”
ISRC GBDHC2013108
INDEX 01 00:00:00
FILE “09 Season of the Swarm.flac” WAVE
TRACK 09 AUDIO
TITLE “Season of the Swarm”
PERFORMER “Psychotic Waltz”
REM COMPOSER “”
ISRC GBDHC2013109
INDEX 01 00:00:00
FILE “10 Sisters of the Dawn.flac” WAVE
TRACK 10 AUDIO
TITLE “Sisters of the Dawn”
PERFORMER “Psychotic Waltz”
REM COMPOSER “”
ISRC GBDHC2013110
INDEX 01 00:00:00
FILE “11 In the Silence.flac” WAVE
TRACK 11 AUDIO
TITLE “In the Silence”
PERFORMER “Psychotic Waltz”
REM COMPOSER “”
ISRC GBDHC2013111
INDEX 01 00:00:00


Leave a Reply

Your email address will not be published. Required fields are marked *

Enter the text from the image below
 

This site uses Akismet to reduce spam. Learn how your comment data is processed.