Pro-Pain – The Final Revolution (Limited Edition)




No Cover available

Artist: Pro-Pain
Year: 2013
Genre: Hardcore
Notes: Discogs
Add. Notes: Limited Edition
Watch Songs on: YouTube
Cover incl.: Yes
Encoder: FLAC
Bitrate: ~1000 kBit/s (44.1 kHz/16 Bit/s)
Log & Cue incl.: Yes/Yes
Size: 638,3 MB
Password: “slam” (without ” “)


All Downloads/Hosters are compatible

Download 1
KatFile.com
Turbobit.net
Rapidgator.net
FileFactory.com
Download 2
KatFile.com
Turbobit.net
Rapidgator.net
FileFactory.com

Tracklist:

1 Deathwish 2:45
2 One Shot One Kill 2:55
3 Southbound 2:43
4 Problem Reaction Solution 3:27
5 The Final Revolution 3:05
6 Can't Stop The Pain 2:54
7 All Systems Fail 3:28
8 Want Some? 2:55
9 Fall From Grace 2:44
10 Emerge 3:38
11 Mass Extinction 2:53
12 Under The Gun 3:20
13 Life's Hard - Live 2010 (Bonus Track) 3:28
14 Get Real - Live 2010 (Bonus Track) 2:08
15 Party In Paris - UK Subs Cover (Bonus Track) 2:41

EAC-Log, CUE-Sheed & NFO:

Click to open spoiler
Exact Audio Copy V1.0 beta 3 from 29. August 2011

Отчёт EAC об извлечении, выполненном 23. декабря 2013, 14:45

Pro-Pain / The Final Revolution [Ltd.Ed., SPV 265500 Digi]

Дисковод: TSSTcorpCDDVDW TS-L633J Adapter: 0 ID: 0

Режим чтения : Достоверность
Использование точного потока : Да
Отключение кэша аудио : Да
Использование указателей C2 : Нет

Коррекция смещения при чтении : 6
Способность читать области Lead-in и Lead-out : Нет
Заполнение пропущенных сэмплов тишиной : Да
Удаление блоков с тишиной в начале и конце : Нет
При вычислениях CRC использовались нулевые сэмплы : Да
Интерфейс : Встроенный Win32-интерфейс для Win NT/2000

Выходной формат : Внутренние WAV-операции
Формат сэмплов : 44.100 Гц; 16 бит; стерео

TOC извлечённого CD

Трек | Старт | Длительность | Начальный сектор | Конечный сектор
———————————————————————
1 | 0:00.00 | 2:45.02 | 0 | 12376
2 | 2:45.02 | 2:55.23 | 12377 | 25524
3 | 5:40.25 | 2:43.28 | 25525 | 37777
4 | 8:23.53 | 3:26.59 | 37778 | 53286
5 | 11:50.37 | 3:04.63 | 53287 | 67149
6 | 14:55.25 | 2:53.54 | 67150 | 80178
7 | 17:49.04 | 3:28.20 | 80179 | 95798
8 | 21:17.24 | 2:54.53 | 95799 | 108901
9 | 24:12.02 | 2:44.02 | 108902 | 121203
10 | 26:56.04 | 3:38.17 | 121204 | 137570
11 | 30:34.21 | 2:52.43 | 137571 | 150513
12 | 33:26.64 | 3:19.56 | 150514 | 165494
13 | 36:46.45 | 3:28.03 | 165495 | 181097
14 | 40:14.48 | 2:07.40 | 181098 | 190662
15 | 42:22.13 | 2:40.46 | 190663 | 202708

Характеристики диапазона извлечения и сообщения об ошибках

Выбранный диапазон

Имя файла C:\spv-av\PPO-PAIN\[2013] [CD] The Final Revolution [Ltd.Ed., SPV 265500 Digi]\Pro-Pain – The Final Revolution [Ltd.Ed., SPV 265500 Digi].wav

Пиковый уровень 97.0 %
Скорость извлечения 2.8 X
Качество диапазона 100.0 %
CRC теста B7A30CBB
CRC копии B7A30CBB
Копирование… OK

Ошибок не произошло

AccurateRip: сводка

Трек 1 отсутствует в базе данных
Трек 2 отсутствует в базе данных
Трек 3 отсутствует в базе данных
Трек 4 отсутствует в базе данных
Трек 5 отсутствует в базе данных
Трек 6 отсутствует в базе данных
Трек 7 отсутствует в базе данных
Трек 8 отсутствует в базе данных
Трек 9 отсутствует в базе данных
Трек 10 отсутствует в базе данных
Трек 11 отсутствует в базе данных
Трек 12 отсутствует в базе данных
Трек 13 отсутствует в базе данных
Трек 14 отсутствует в базе данных
Трек 15 отсутствует в базе данных

Ни одного трека нет в базе AccurateRip

Конец отчёта

==== Контрольная сумма отчёта 1B59FCB89E7941DBEFD04CECBE43E3045747265CC994BD5B2D74037B5A88C0FD ====

REM DATE 2013
REM DISCID C30A8E0F
REM COMMENT “ExactAudioCopy v1.0b3”
PERFORMER “Pro-Pain”
TITLE “The Final Revolution [Ltd.Ed., SPV 265500 Digi]”
FILE “Pro-Pain – The Final Revolution [Ltd.Ed., SPV 265500 Digi].wav” WAVE
TRACK 01 AUDIO
TITLE “Deathwish”
PERFORMER “Pro-Pain”
FLAGS DCP
INDEX 01 00:00:00
TRACK 02 AUDIO
TITLE “One Shot One Kill”
PERFORMER “Pro-Pain”
FLAGS DCP
INDEX 01 02:45:02
TRACK 03 AUDIO
TITLE “Southbound”
PERFORMER “Pro-Pain”
FLAGS DCP
INDEX 01 05:40:25
TRACK 04 AUDIO
TITLE “Problem Reaction Solution”
PERFORMER “Pro-Pain”
FLAGS DCP
INDEX 01 08:23:53
TRACK 05 AUDIO
TITLE “The Final Revolution”
PERFORMER “Pro-Pain”
FLAGS DCP
INDEX 01 11:50:37
TRACK 06 AUDIO
TITLE “Can’t Stop The Pain”
PERFORMER “Pro-Pain”
FLAGS DCP
INDEX 01 14:55:25
TRACK 07 AUDIO
TITLE “All Systems Fail”
PERFORMER “Pro-Pain”
FLAGS DCP
INDEX 01 17:49:04
TRACK 08 AUDIO
TITLE “Want Some?”
PERFORMER “Pro-Pain”
FLAGS DCP
INDEX 01 21:17:24
TRACK 09 AUDIO
TITLE “Fall From Grace”
PERFORMER “Pro-Pain”
FLAGS DCP
INDEX 01 24:12:02
TRACK 10 AUDIO
TITLE “Emerge”
PERFORMER “Pro-Pain”
FLAGS DCP
INDEX 01 26:56:04
TRACK 11 AUDIO
TITLE “Mass Extinction”
PERFORMER “Pro-Pain”
FLAGS DCP
INDEX 01 30:34:21
TRACK 12 AUDIO
TITLE “Under The Gun”
PERFORMER “Pro-Pain”
FLAGS DCP
INDEX 01 33:26:64
TRACK 13 AUDIO
TITLE “Life’s Hard – Live 2010 (Bonus Track)”
PERFORMER “Pro-Pain”
FLAGS DCP
INDEX 01 36:46:45
TRACK 14 AUDIO
TITLE “Get Real – Live 2010 (Bonus Track)”
PERFORMER “Pro-Pain”
FLAGS DCP
INDEX 01 40:14:48
TRACK 15 AUDIO
TITLE “Party In Paris – UK Subs Cover (Bonus Track)”
PERFORMER “Pro-Pain”
FLAGS DCP
INDEX 01 42:22:13


Leave a Reply

Your email address will not be published. Required fields are marked *

Enter the text from the image below
 

This site uses Akismet to reduce spam. Learn how your comment data is processed.