Poison Girls – Their Finest Moments




[Total: 0    Average: 0/5]

Artist: Poison Girls
Year: 1997
Genre: Punk
Notes: Discogs
Add. Notes:
Cover incl.: No
Encoder: FLAC
Bitrate: ~800 kBit/s (44.1 kHz/16 Bit/s)
Log & Cue incl.: Yes
Size: 413,62 MB
Password: “slam” (without ” “)


All Downloads/Hosters are compatible

Download 1
Share-online.biz
KatFile.com
Rapidgator.net
Download 2
Share-online.biz
KatFile.com
Rapidgator.net

Tracklist:

1. Old Tart
2. Persons Unknown
3. Cream Dream
4. Take The Toys
5. Real Woman
6. Dirty Work
7. Underbitch
8. Statement
9. Piano Lessons
10. Promenade Immortelle
11. Cinnamon Garden
12. Cry No More
13. State Control
14. Stonehenge
15. Where's The Pleasure
16. Alienation
17. Too Proud
18. Done It All Before

EAC-Log, CUE-Sheed & NFO:

Click to open spoiler
Exact Audio Copy V1.1 from 23. June 2015

EAC extraction logfile from 10. July 2016, 10:33

Poison Girls / Their Finest Moments

Used drive : ATAPI iHAS124 B Adapter: 1 ID: 0

Read mode : Secure
Utilize accurate stream : Yes
Defeat audio cache : Yes
Make use of C2 pointers : No

Read offset correction : 6
Overread into Lead-In and Lead-Out : No
Fill up missing offset samples with silence : Yes
Delete leading and trailing silent blocks : No
Null samples used in CRC calculations : Yes
Used interface : Native Win32 interface for Win NT & 2000

Used output format : User Defined Encoder
Selected bitrate : 1024 kBit/s
Quality : High
Add ID3 tag : No
Command line compressor : C:\Program Files\Exact Audio Copy\Flac\flac.exe
Additional command line options : -V -8 -T “Date=%year%” -T “Genre=%genre%” %source%

TOC of the extracted CD

Track | Start | Length | Start sector | End sector
———————————————————
1 | 0:00.00 | 2:21.22 | 0 | 10596
2 | 2:21.22 | 7:14.70 | 10597 | 43216
3 | 9:36.17 | 3:59.73 | 43217 | 61214
4 | 13:36.15 | 2:24.30 | 61215 | 72044
5 | 16:00.45 | 3:44.70 | 72045 | 88914
6 | 19:45.40 | 4:31.25 | 88915 | 109264
7 | 24:16.65 | 4:19.43 | 109265 | 128732
8 | 28:36.33 | 5:10.08 | 128733 | 151990
9 | 33:46.41 | 3:47.05 | 151991 | 169020
10 | 37:33.46 | 6:55.45 | 169021 | 200190
11 | 44:29.16 | 3:14.38 | 200191 | 214778
12 | 47:43.54 | 3:15.73 | 214779 | 229476
13 | 50:59.52 | 2:54.28 | 229477 | 242554
14 | 53:54.05 | 2:56.10 | 242555 | 255764
15 | 56:50.15 | 3:07.45 | 255765 | 269834
16 | 59:57.60 | 6:50.62 | 269835 | 300646
17 | 66:48.47 | 4:18.25 | 300647 | 320021
18 | 71:06.72 | 3:20.03 | 320022 | 335024

Range status and errors

Selected range

Filename C:\Users\ARNOLDAS\Videos\Poison Girls ‎– Their Finest Moments (1997 – FLAC)\Poison Girls – Their Finest Moments.wav

Peak level 97.4 %
Extraction speed 8.2 X
Range quality 100.0 %
Test CRC B796DBFE
Copy CRC B796DBFE
Copy OK

No errors occurred

End of status report

==== Log checksum 09ADB93AEDE6F549A1BF791CD9DE2089B9CDD98949C9C6565313B6BCF0B52C42 ====

REM GENRE “Punk Rock”
REM DATE 1997
REM DISCID 09117312
REM COMMENT “ExactAudioCopy v1.1”
PERFORMER “Poison Girls”
TITLE “Their Finest Moments ”
FILE “Poison Girls – Their Finest Moments.flac” WAVE
TRACK 01 AUDIO
TITLE “Old Tart”
PERFORMER “Poison Girls”
INDEX 01 00:00:00
TRACK 02 AUDIO
TITLE “Persons Unknown”
PERFORMER “Poison Girls”
INDEX 01 02:21:22
TRACK 03 AUDIO
TITLE “Cream Dream”
PERFORMER “Poison Girls”
INDEX 01 09:36:17
TRACK 04 AUDIO
TITLE “Take The Toys”
PERFORMER “Poison Girls”
INDEX 01 13:36:15
TRACK 05 AUDIO
TITLE “Real Woman”
PERFORMER “Poison Girls”
INDEX 01 16:00:45
TRACK 06 AUDIO
TITLE “Dirty Work”
PERFORMER “Poison Girls”
INDEX 01 19:45:40
TRACK 07 AUDIO
TITLE “Underbitch”
PERFORMER “Poison Girls”
INDEX 01 24:16:65
TRACK 08 AUDIO
TITLE “Statement”
PERFORMER “Poison Girls”
INDEX 01 28:36:33
TRACK 09 AUDIO
TITLE “Piano Lessons”
PERFORMER “Poison Girls”
INDEX 01 33:46:41
TRACK 10 AUDIO
TITLE “Promenade Immortelle”
PERFORMER “Poison Girls”
INDEX 01 37:33:46
TRACK 11 AUDIO
TITLE “Cinnamon Garden”
PERFORMER “Poison Girls”
INDEX 01 44:29:16
TRACK 12 AUDIO
TITLE “Cry No More”
PERFORMER “Poison Girls”
INDEX 01 47:43:54
TRACK 13 AUDIO
TITLE “State Control”
PERFORMER “Poison Girls”
INDEX 01 50:59:52
TRACK 14 AUDIO
TITLE “Stonehenge”
PERFORMER “Poison Girls”
INDEX 01 53:54:05
TRACK 15 AUDIO
TITLE “Where’s The Pleasure”
PERFORMER “Poison Girls”
INDEX 01 56:50:15
TRACK 16 AUDIO
TITLE “Alienation”
PERFORMER “Poison Girls”
INDEX 01 59:57:60
TRACK 17 AUDIO
TITLE “Too Proud”
PERFORMER “Poison Girls”
INDEX 01 66:48:47
TRACK 18 AUDIO
TITLE “Done It All Before”
PERFORMER “Poison Girls”
INDEX 01 71:06:72


Spread the Download

Leave a Reply

Your email address will not be published. Required fields are marked *

Enter the text from the image below
 

This site uses Akismet to reduce spam. Learn how your comment data is processed.