Pink Floyd – Ummagumma (Remastered)




Artist: Pink Floyd
Year: 1969/2011
Genre: Rock
Notes: Discogs
Add. Notes: Remastered
Cover incl.: Yes
Encoder: FLAC
Bitrate: ~800 kBit/s (44.1 kHz/16 Bit/s)
Log & Cue incl.: Yes
Size: 632,19 MB
Password: “slam” (without ” “)


All Downloads/Hosters are compatible

Download 1
Turbobit.net
Rapidgator.net
UploadEver.com
JustUpload.io
UsersDrive.com
Download 2
Turbobit.net
Rapidgator.net
UploadEver.com
JustUpload.io
UsersDrive.com
Download 3
Turbobit.net
Rapidgator.net
UploadEver.com
JustUpload.io
UsersDrive.com

Tracklist:

Live Album - 39:39
1-1 - Astronomy Domine - 8:32
1-2 - Careful With That Axe, Eugene - 8:49
1-3 - Set The Controls For The Heart Of The Sun - 9:27
1-4 - A Saucerful Of Secrets - 12:51
Studio Album - 46:55
Sysyphus
2-1 - Part One - 1:09
2-2 - Part Two - 3:30
2-3 - Part Three - 1:49
2-4 - Part Four - 6:59
2-5 - Grantchester Meadows - 7:27
2-6 - Several Species Of Small - 4:58
The Narrow Way
2-7 - Part One - 3:28
2-8 - Part Two - 2:53
2-9 - Part Three - 5:57
The Grand Vizier's Garden Party
2-10 - Part One - Entrance - 0:59
2-11 - Part Two - Entertainment - 7:05
2-12 - Part Three - Exit - 0:41

EAC-Log, CUE-Sheed & NFO:

Click to open spoiler
Exact Audio Copy V0.99 prebeta 5 from 4. May 2009

EAC extraction logfile from 3. October 2011, 17:32

PINK FLOYD / UMMAGUMMA : LIVE ALBUM

Used drive : SONY CDRW/DVD CRX835E Adapter: 4 ID: 0

Read mode : Secure
Utilize accurate stream : Yes
Defeat audio cache : Yes
Make use of C2 pointers : No

Read offset correction : 6
Overread into Lead-In and Lead-Out : No
Fill up missing offset samples with silence : Yes
Delete leading and trailing silent blocks : No
Null samples used in CRC calculations : Yes
Used interface : Native Win32 interface for Win NT & 2000
Gap handling : Appended to previous track

Used output format : User Defined Encoder
Selected bitrate : 1024 kBit/s
Quality : High
Add ID3 tag : No
Command line compressor : C:\Program Files (x86)\Exact Audio Copy\Flac\flac.exe
Additional command line options : -8 -V -T “ARTIST=%a” -T “TITLE=%t” -T “ALBUM=%g” -T “DATE=%y” -T “TRACKNUMBER=%n” -T “TOTALTRACKS=%x” -T “GENRE=%m” -T “ALBUM ARTIST=%v” -T “ALBUMARTIST=%v” -T “COMMENT=EAC V0.99 prebeta 5, Secure Mode, Test & Copy, Accurat

TOC of the extracted CD

Track | Start | Length | Start sector | End sector
———————————————————
1 | 0:00.00 | 8:32.66 | 0 | 38465
2 | 8:32.66 | 8:49.37 | 38466 | 78177
3 | 17:22.28 | 9:27.16 | 78178 | 120718
4 | 26:49.44 | 12:51.20 | 120719 | 178563

Track 1

Filename C:\Losslessworld.info\Pink Floyd – The Discovery Studio Album Box Set (2011) [FLAC] { Japan, Remastered, 16 CDs, EMI, TOCP-71147-62 }\Pink Floyd – Ummagumma (1969) [FLAC] { TOCP-71134-35 }\CD1\01 – Astronomy Domine.wav

Pre-gap length 0:00:02.00

Peak level 100.0 %
Track quality 100.0 %
Test CRC 4EA6A12B
Copy CRC 4EA6A12B
Copy OK

Track 2

Filename C:\Losslessworld.info\Pink Floyd – The Discovery Studio Album Box Set (2011) [FLAC] { Japan, Remastered, 16 CDs, EMI, TOCP-71147-62 }\Pink Floyd – Ummagumma (1969) [FLAC] { TOCP-71134-35 }\CD1\02 – Careful With That Axe, Eugene.wav

Peak level 100.0 %
Track quality 100.0 %
Test CRC 8E5AB3AD
Copy CRC 8E5AB3AD
Copy OK

Track 3

Filename C:\Losslessworld.info\Pink Floyd – The Discovery Studio Album Box Set (2011) [FLAC] { Japan, Remastered, 16 CDs, EMI, TOCP-71147-62 }\Pink Floyd – Ummagumma (1969) [FLAC] { TOCP-71134-35 }\CD1\03 – Set The Controls For The Heart Of The Sun.wav

Peak level 100.0 %
Track quality 100.0 %
Test CRC 5949A786
Copy CRC 5949A786
Copy OK

Track 4

Filename C:\Losslessworld.info\Pink Floyd – The Discovery Studio Album Box Set (2011) [FLAC] { Japan, Remastered, 16 CDs, EMI, TOCP-71147-62 }\Pink Floyd – Ummagumma (1969) [FLAC] { TOCP-71134-35 }\CD1\04 – A Saucerful Of Secrets.wav

Peak level 100.0 %
Track quality 100.0 %
Test CRC EDAC6DCC
Copy CRC EDAC6DCC
Copy OK

No errors occurred

End of status report

REM GENRE “Psychedelic Rock”
REM DATE 1969
REM DISCID 1E094C04
REM COMMENT “ExactAudioCopy v0.99pb5”
PERFORMER “PINK FLOYD”
TITLE “UMMAGUMMA : LIVE ALBUM”
FILE “01 – Astronomy Domine.wav” WAVE
TRACK 01 AUDIO
TITLE “Astronomy Domine”
PERFORMER “PINK FLOYD”
INDEX 01 00:00:00
FILE “02 – Careful With That Axe, Eugene.wav” WAVE
TRACK 02 AUDIO
TITLE “Careful With That Axe, Eugene”
PERFORMER “PINK FLOYD”
INDEX 01 00:00:00
FILE “03 – Set The Controls For The Heart Of The Sun.wav” WAVE
TRACK 03 AUDIO
TITLE “Set The Controls For The Heart Of The Sun”
PERFORMER “PINK FLOYD”
INDEX 01 00:00:00
FILE “04 – A Saucerful Of Secrets.wav” WAVE
TRACK 04 AUDIO
TITLE “A Saucerful Of Secrets”
PERFORMER “PINK FLOYD”
INDEX 01 00:00:00

Exact Audio Copy V0.99 prebeta 5 from 4. May 2009

EAC extraction logfile from 3. October 2011, 18:02

PINK FLOYD / UMMAGUMMA : STUDIO ALBUM

Used drive : SONY CDRW/DVD CRX835E Adapter: 4 ID: 0

Read mode : Secure
Utilize accurate stream : Yes
Defeat audio cache : Yes
Make use of C2 pointers : No

Read offset correction : 6
Overread into Lead-In and Lead-Out : No
Fill up missing offset samples with silence : Yes
Delete leading and trailing silent blocks : No
Null samples used in CRC calculations : Yes
Used interface : Native Win32 interface for Win NT & 2000
Gap handling : Appended to previous track

Used output format : User Defined Encoder
Selected bitrate : 1024 kBit/s
Quality : High
Add ID3 tag : No
Command line compressor : C:\Program Files (x86)\Exact Audio Copy\Flac\flac.exe
Additional command line options : -8 -V -T “ARTIST=%a” -T “TITLE=%t” -T “ALBUM=%g” -T “DATE=%y” -T “TRACKNUMBER=%n” -T “TOTALTRACKS=%x” -T “GENRE=%m” -T “ALBUM ARTIST=%v” -T “ALBUMARTIST=%v” -T “COMMENT=EAC V0.99 prebeta 5, Secure Mode, Test & Copy, Accurat

TOC of the extracted CD

Track | Start | Length | Start sector | End sector
———————————————————
1 | 0:00.00 | 1:09.34 | 0 | 5208
2 | 1:09.34 | 3:30.02 | 5209 | 20960
3 | 4:39.36 | 1:49.52 | 20961 | 29187
4 | 6:29.13 | 6:59.68 | 29188 | 60680
5 | 13:29.06 | 7:27.41 | 60681 | 94246
6 | 20:56.47 | 4:58.48 | 94247 | 116644
7 | 25:55.20 | 3:28.44 | 116645 | 132288
8 | 29:23.64 | 2:53.19 | 132289 | 145282
9 | 32:17.08 | 5:57.40 | 145283 | 172097
10 | 38:14.48 | 0:59.56 | 172098 | 176578
11 | 39:14.29 | 7:05.71 | 176579 | 208524
12 | 46:20.25 | 0:41.71 | 208525 | 211670

Track 1

Filename C:\Losslessworld.info\Pink Floyd – The Discovery Studio Album Box Set (2011) [FLAC] { Japan, Remastered, 16 CDs, EMI, TOCP-71147-62 }\Pink Floyd – Ummagumma (1969) [FLAC] { TOCP-71134-35 }\CD2\01 – Sysyphus – Part One.wav

Pre-gap length 0:00:02.00

Peak level 100.0 %
Track quality 100.0 %
Test CRC AC734D89
Copy CRC AC734D89
Copy OK

Track 2

Filename C:\Losslessworld.info\Pink Floyd – The Discovery Studio Album Box Set (2011) [FLAC] { Japan, Remastered, 16 CDs, EMI, TOCP-71147-62 }\Pink Floyd – Ummagumma (1969) [FLAC] { TOCP-71134-35 }\CD2\02 – Sysyphus – Part Two.wav

Peak level 80.0 %
Track quality 100.0 %
Test CRC 80A8D4E6
Copy CRC 80A8D4E6
Copy OK

Track 3

Filename C:\Losslessworld.info\Pink Floyd – The Discovery Studio Album Box Set (2011) [FLAC] { Japan, Remastered, 16 CDs, EMI, TOCP-71147-62 }\Pink Floyd – Ummagumma (1969) [FLAC] { TOCP-71134-35 }\CD2\03 – Sysyphus – Part Three.wav

Peak level 96.2 %
Track quality 100.0 %
Test CRC E6B1DC2C
Copy CRC E6B1DC2C
Copy OK

Track 4

Filename C:\Losslessworld.info\Pink Floyd – The Discovery Studio Album Box Set (2011) [FLAC] { Japan, Remastered, 16 CDs, EMI, TOCP-71147-62 }\Pink Floyd – Ummagumma (1969) [FLAC] { TOCP-71134-35 }\CD2\04 – Sysyphus – Part Four.wav

Peak level 100.0 %
Track quality 100.0 %
Test CRC DE3EFC56
Copy CRC DE3EFC56
Copy OK

Track 5

Filename C:\Losslessworld.info\Pink Floyd – The Discovery Studio Album Box Set (2011) [FLAC] { Japan, Remastered, 16 CDs, EMI, TOCP-71147-62 }\Pink Floyd – Ummagumma (1969) [FLAC] { TOCP-71134-35 }\CD2\05 – Grantchester Meadows.wav

Peak level 100.0 %
Track quality 100.0 %
Test CRC 4C4D124B
Copy CRC 4C4D124B
Copy OK

Track 6

Filename C:\Losslessworld.info\Pink Floyd – The Discovery Studio Album Box Set (2011) [FLAC] { Japan, Remastered, 16 CDs, EMI, TOCP-71147-62 }\Pink Floyd – Ummagumma (1969) [FLAC] { TOCP-71134-35 }\CD2\06 – Several Species Of Small Furry Animals Gather

Peak level 100.0 %
Track quality 100.0 %
Test CRC F03367F3
Copy CRC F03367F3
Copy OK

Track 7

Filename C:\Losslessworld.info\Pink Floyd – The Discovery Studio Album Box Set (2011) [FLAC] { Japan, Remastered, 16 CDs, EMI, TOCP-71147-62 }\Pink Floyd – Ummagumma (1969) [FLAC] { TOCP-71134-35 }\CD2\07 – The Narrow Way – Part One.wav

Peak level 100.0 %
Track quality 100.0 %
Test CRC 45AEA44A
Copy CRC 45AEA44A
Copy OK

Track 8

Filename C:\Losslessworld.info\Pink Floyd – The Discovery Studio Album Box Set (2011) [FLAC] { Japan, Remastered, 16 CDs, EMI, TOCP-71147-62 }\Pink Floyd – Ummagumma (1969) [FLAC] { TOCP-71134-35 }\CD2\08 – The Narrow Way – Part two.wav

Peak level 100.0 %
Track quality 100.0 %
Test CRC 89C5B8AD
Copy CRC 89C5B8AD
Copy OK

Track 9

Filename C:\Losslessworld.info\Pink Floyd – The Discovery Studio Album Box Set (2011) [FLAC] { Japan, Remastered, 16 CDs, EMI, TOCP-71147-62 }\Pink Floyd – Ummagumma (1969) [FLAC] { TOCP-71134-35 }\CD2\09 – The Narrow Way – Part Three.wav

Peak level 100.0 %
Track quality 100.0 %
Test CRC 74BA5E2D
Copy CRC 74BA5E2D
Copy OK

Track 10

Filename C:\Losslessworld.info\Pink Floyd – The Discovery Studio Album Box Set (2011) [FLAC] { Japan, Remastered, 16 CDs, EMI, TOCP-71147-62 }\Pink Floyd – Ummagumma (1969) [FLAC] { TOCP-71134-35 }\CD2\10 – The Grand Vizier’s Garden Party – Part One –

Peak level 87.5 %
Track quality 99.8 %
Test CRC DBBA5BD9
Copy CRC DBBA5BD9
Copy OK

Track 11

Filename C:\Losslessworld.info\Pink Floyd – The Discovery Studio Album Box Set (2011) [FLAC] { Japan, Remastered, 16 CDs, EMI, TOCP-71147-62 }\Pink Floyd – Ummagumma (1969) [FLAC] { TOCP-71134-35 }\CD2\11 – The Grand Vizier’s Garden Party – Part Two –

Peak level 100.0 %
Track quality 100.0 %
Test CRC 2C7AB2FC
Copy CRC 2C7AB2FC
Copy OK

Track 12

Filename C:\Losslessworld.info\Pink Floyd – The Discovery Studio Album Box Set (2011) [FLAC] { Japan, Remastered, 16 CDs, EMI, TOCP-71147-62 }\Pink Floyd – Ummagumma (1969) [FLAC] { TOCP-71134-35 }\CD2\12 – The Grand Vizier’s Garden Party – Part Three

Peak level 52.2 %
Track quality 100.0 %
Test CRC FCC00232
Copy CRC FCC00232
Copy OK

No errors occurred

End of status report

REM GENRE “Psychedelic Rock”
REM DATE 1969
REM DISCID AD0B060C
REM COMMENT “ExactAudioCopy v0.99pb5”
PERFORMER “PINK FLOYD”
TITLE “UMMAGUMMA : STUDIO ALBUM”
FILE “01 – Sysyphus – Part One.wav” WAVE
TRACK 01 AUDIO
TITLE “Sysyphus : Part One”
PERFORMER “PINK FLOYD”
INDEX 01 00:00:00
FILE “02 – Sysyphus – Part Two.wav” WAVE
TRACK 02 AUDIO
TITLE “Sysyphus : Part Two”
PERFORMER “PINK FLOYD”
INDEX 01 00:00:00
FILE “03 – Sysyphus – Part Three.wav” WAVE
TRACK 03 AUDIO
TITLE “Sysyphus : Part Three”
PERFORMER “PINK FLOYD”
INDEX 01 00:00:00
FILE “04 – Sysyphus – Part Four.wav” WAVE
TRACK 04 AUDIO
TITLE “Sysyphus : Part Four”
PERFORMER “PINK FLOYD”
INDEX 01 00:00:00
FILE “05 – Grantchester Meadows.wav” WAVE
TRACK 05 AUDIO
TITLE “Grantchester Meadows”
PERFORMER “PINK FLOYD”
INDEX 01 00:00:00
FILE “06 – Several Species Of Small Furry Animals Gathered Together….wav” WAVE
TRACK 06 AUDIO
TITLE “Several Species Of Small Furry Animals Gathered Together…”
PERFORMER “PINK FLOYD”
INDEX 01 00:00:00
FILE “07 – The Narrow Way – Part One.wav” WAVE
TRACK 07 AUDIO
TITLE “The Narrow Way : Part One”
PERFORMER “PINK FLOYD”
INDEX 01 00:00:00
FILE “08 – The Narrow Way – Part two.wav” WAVE
TRACK 08 AUDIO
TITLE “The Narrow Way : Part two”
PERFORMER “PINK FLOYD”
INDEX 01 00:00:00
FILE “09 – The Narrow Way – Part Three.wav” WAVE
TRACK 09 AUDIO
TITLE “The Narrow Way : Part Three”
PERFORMER “PINK FLOYD”
INDEX 01 00:00:00
FILE “10 – The Grand Vizier’s Garden Party – Part One – Entrance.wav” WAVE
TRACK 10 AUDIO
TITLE “The Grand Vizier’s Garden Party : Part One – Entrance”
PERFORMER “PINK FLOYD”
INDEX 01 00:00:00
FILE “11 – The Grand Vizier’s Garden Party – Part Two – Entertainment.wav” WAVE
TRACK 11 AUDIO
TITLE “The Grand Vizier’s Garden Party : Part Two – Entertainment”
PERFORMER “PINK FLOYD”
INDEX 01 00:00:00
FILE “12 – The Grand Vizier’s Garden Party – Part Three – Exit.wav” WAVE
TRACK 12 AUDIO
TITLE “The Grand Vizier’s Garden Party : Part Three – Exit”
PERFORMER “PINK FLOYD”
INDEX 01 00:00:00

Leave a Reply

Your email address will not be published. Required fields are marked *

Enter the text from the image below
 

This site uses Akismet to reduce spam. Learn how your comment data is processed.