Pink Floyd – The Wall (Remastered)




Artist: Pink Floyd
Year: 1979/1994
Genre: Rock
Notes: Discogs
Add. Notes: Remastered
Encoder: FLAC
Bitrate: ~800 kBit/s (44.1 kHz/16 Bit/s)
Size: 476,37 MB
Password: “slam” (without ” “)


http://www.share-online.biz/dl/Q3R91YQPT5J
https://rapidgator.net/file/7c01146d523d82b71a5abca0f146a437
https://ayefiles.com/ekusukqj6h3b/PinFlo-TheWal1994EMI.rar.html
https://hitfile.net/znjV2Uc

Onlinestatus: Turbobit.net Rapidgator.net AyeFiles.com Hitfile.net

Tracklist:

1-1 - In The Flesh? - 3:20
1-2 - The Thin Ice - 2:30
1-3 - Another Brick In The Wall Part 1 - 3:10
1-4 - The Happiest Days Of Our Lives - 1:50
1-5 - Another Brick In The Wall Part 2 - 3:59
1-6 - Mother - 5:34
1-7 - Goodbye Blue Sky - 2:48
1-8 - Empty Spaces - 2:08
1-9 - Young Lust - 3:31
1-10 - One Of My Turns - 3:37
1-11 - Don't Leave Me Now - 4:16
1-12 - Another Brick In The Wall Part 3 - 1:15
1-13 - Goodbye Cruel World - 1:14
2-1 - Hey You - 4:42
2-2 - Is There Anybody Out There? - 2:40
2-3 - Nobody Home - 3:25
2-4 - Vera - 1:33
2-5 - Bring The Boys Back Home - 1:27
2-6 - Comfortably Numb - 6:22
2-7 - The Show Must Go On - 1:36
2-8 - In The Flesh - 4:17
2-9 - Run Like Hell - 4:24
2-10 - Waiting For The Worms - 3:58
2-11 - Stop - 0:30
2-12 - The Trial - 5:20
2-13 - Outside The Wall - 1:43

EAC-Log, CUE-Sheed & NFO:

Click to open spoiler
Exact Audio Copy V1.0 beta 3 from 29. August 2011

EAC extraction logfile from 23. September 2014, 17:40

Pink Floyd / The Wall [Disc 2]

Used drive : HL-DT-STCD-RW GCE-8527B Adapter: 1 ID: 0

Read mode : Secure
Utilize accurate stream : Yes
Defeat audio cache : Yes
Make use of C2 pointers : No

Read offset correction : 6
Overread into Lead-In and Lead-Out : No
Fill up missing offset samples with silence : Yes
Delete leading and trailing silent blocks : No
Null samples used in CRC calculations : Yes
Used interface : Native Win32 interface for Win NT & 2000
Gap handling : Appended to previous track

Used output format : User Defined Encoder
Selected bitrate : 1024 kBit/s
Quality : High
Add ID3 tag : No
Command line compressor : C:\Program Files\Exact Audio Copy\FLAC\FLAC.EXE
Additional command line options : -8 -V -T “ARTIST=%artist%” -T “TITLE=%title%” -T “ALBUM=%albumtitle%” -T “DATE=%year%” -T “TRACKNUMBER=%tracknr%” -T “GENRE=%genre%” -T “COMMENT=%comment%” %source% -o %dest%

TOC of the extracted CD

Track | Start | Length | Start sector | End sector
———————————————————
1 | 0:00.00 | 4:42.18 | 0 | 21167
2 | 4:42.18 | 2:40.47 | 21168 | 33214
3 | 7:22.65 | 3:24.70 | 33215 | 48584
4 | 10:47.60 | 1:33.58 | 48585 | 55617
5 | 12:21.43 | 1:27.05 | 55618 | 62147
6 | 13:48.48 | 6:24.05 | 62148 | 90952
7 | 20:12.53 | 1:35.65 | 90953 | 98142
8 | 21:48.43 | 4:17.52 | 98143 | 117469
9 | 26:06.20 | 4:24.53 | 117470 | 137322
10 | 30:30.73 | 3:58.30 | 137323 | 155202
11 | 34:29.28 | 0:30.35 | 155203 | 157487
12 | 34:59.63 | 5:20.12 | 157488 | 181499
13 | 40:20.00 | 1:44.28 | 181500 | 189327

Track 1

Filename C:\Pink Floyd – The Wall [1994 EMI Records Remaster]\Disc 2\01 – Hey You.wav

Pre-gap length 0:00:02.00

Peak level 100.0 %
Extraction speed 2.6 X
Track quality 100.0 %
Test CRC 82A260FF
Copy CRC 82A260FF
Accurately ripped (confidence 146) [E112232E] (AR v2)
Copy OK

Track 2

Filename C:\Pink Floyd – The Wall [1994 EMI Records Remaster]\Disc 2\02 – Is There Anybody Out There.wav

Peak level 75.6 %
Extraction speed 2.7 X
Track quality 100.0 %
Test CRC E0202425
Copy CRC E0202425
Accurately ripped (confidence 147) [BE742500] (AR v2)
Copy OK

Track 3

Filename C:\Pink Floyd – The Wall [1994 EMI Records Remaster]\Disc 2\03 – Nobody Home.wav

Peak level 69.7 %
Extraction speed 3.0 X
Track quality 100.0 %
Test CRC 17653707
Copy CRC 17653707
Accurately ripped (confidence 148) [494EAF06] (AR v2)
Copy OK

Track 4

Filename C:\Pink Floyd – The Wall [1994 EMI Records Remaster]\Disc 2\04 – Vera.wav

Peak level 53.8 %
Extraction speed 2.6 X
Track quality 100.0 %
Test CRC 61FEA971
Copy CRC 61FEA971
Accurately ripped (confidence 148) [42FC5F4A] (AR v2)
Copy OK

Track 5

Filename C:\Pink Floyd – The Wall [1994 EMI Records Remaster]\Disc 2\05 – Bring the Boys Back Home.wav

Peak level 100.0 %
Extraction speed 2.7 X
Track quality 100.0 %
Test CRC 887E503D
Copy CRC 887E503D
Accurately ripped (confidence 148) [94E7C235] (AR v2)
Copy OK

Track 6

Filename C:\Pink Floyd – The Wall [1994 EMI Records Remaster]\Disc 2\06 – Comfortably Numb.wav

Peak level 100.0 %
Extraction speed 3.7 X
Track quality 100.0 %
Test CRC 29E43997
Copy CRC 29E43997
Accurately ripped (confidence 149) [EB624BEE] (AR v2)
Copy OK

Track 7

Filename C:\Pink Floyd – The Wall [1994 EMI Records Remaster]\Disc 2\07 – The Show Must Go On.wav

Pre-gap length 0:00:00.59

Peak level 84.2 %
Extraction speed 3.1 X
Track quality 100.0 %
Test CRC 01911E91
Copy CRC 01911E91
Accurately ripped (confidence 148) [07230162] (AR v2)
Copy OK

Track 8

Filename C:\Pink Floyd – The Wall [1994 EMI Records Remaster]\Disc 2\08 – In the Flesh.wav

Peak level 100.0 %
Extraction speed 3.8 X
Track quality 100.0 %
Test CRC FA6B6986
Copy CRC FA6B6986
Accurately ripped (confidence 147) [F7EBBE3E] (AR v2)
Copy OK

Track 9

Filename C:\Pink Floyd – The Wall [1994 EMI Records Remaster]\Disc 2\09 – Run Like Hell.wav

Peak level 100.0 %
Extraction speed 4.1 X
Track quality 100.0 %
Test CRC DDB340F7
Copy CRC DDB340F7
Accurately ripped (confidence 147) [5AAD6FD0] (AR v2)
Copy OK

Track 10

Filename C:\Pink Floyd – The Wall [1994 EMI Records Remaster]\Disc 2\10 – Waiting for the Worms.wav

Peak level 100.0 %
Extraction speed 3.8 X
Track quality 99.9 %
Test CRC 1C8DEE64
Copy CRC 1C8DEE64
Accurately ripped (confidence 147) [92CA0091] (AR v2)
Copy OK

Track 11

Filename C:\Pink Floyd – The Wall [1994 EMI Records Remaster]\Disc 2\11 – Stop.wav

Peak level 19.4 %
Extraction speed 2.3 X
Track quality 100.0 %
Test CRC B2FAE5DE
Copy CRC B2FAE5DE
Accurately ripped (confidence 149) [8B1115CF] (AR v2)
Copy OK

Track 12

Filename C:\Pink Floyd – The Wall [1994 EMI Records Remaster]\Disc 2\12 – The Trial.wav

Peak level 100.0 %
Extraction speed 4.5 X
Track quality 100.0 %
Test CRC 327F27B8
Copy CRC 327F27B8
Accurately ripped (confidence 146) [259BA23C] (AR v2)
Copy OK

Track 13

Filename C:\Pink Floyd – The Wall [1994 EMI Records Remaster]\Disc 2\13 – Outside the Wall.wav

Peak level 17.0 %
Extraction speed 3.9 X
Track quality 100.0 %
Test CRC 7FB5A63F
Copy CRC 7FB5A63F
Accurately ripped (confidence 144) [6AF0E2D9] (AR v2)
Copy OK

All tracks accurately ripped

No errors occurred

End of status report

==== Log checksum 911EFF9AD22BA9A29E086C176BDF2B5A7B46D72357D3C36F5FD34976D9373ADC ====

Exact Audio Copy V1.0 beta 3 from 29. August 2011

EAC extraction logfile from 23. September 2014, 19:21

Pink Floyd / The Wall [Disc 1]

Used drive : HL-DT-STCD-RW GCE-8527B Adapter: 1 ID: 0

Read mode : Secure
Utilize accurate stream : Yes
Defeat audio cache : Yes
Make use of C2 pointers : No

Read offset correction : 6
Overread into Lead-In and Lead-Out : No
Fill up missing offset samples with silence : Yes
Delete leading and trailing silent blocks : No
Null samples used in CRC calculations : Yes
Used interface : Native Win32 interface for Win NT & 2000
Gap handling : Appended to previous track

Used output format : User Defined Encoder
Selected bitrate : 1024 kBit/s
Quality : High
Add ID3 tag : No
Command line compressor : C:\Program Files\Exact Audio Copy\FLAC\FLAC.EXE
Additional command line options : -8 -V -T “ARTIST=%artist%” -T “TITLE=%title%” -T “ALBUM=%albumtitle%” -T “DATE=%year%” -T “TRACKNUMBER=%tracknr%” -T “GENRE=%genre%” -T “COMMENT=%comment%” %source% -o %dest%

TOC of the extracted CD

Track | Start | Length | Start sector | End sector
———————————————————
1 | 0:00.00 | 3:19.70 | 0 | 14994
2 | 3:19.70 | 2:29.65 | 14995 | 26234
3 | 5:49.60 | 3:09.72 | 26235 | 40481
4 | 8:59.57 | 1:51.30 | 40482 | 48836
5 | 10:51.12 | 3:59.70 | 48837 | 66831
6 | 14:51.07 | 5:36.48 | 66832 | 92079
7 | 20:27.55 | 2:48.20 | 92080 | 104699
8 | 23:16.00 | 2:08.15 | 104700 | 114314
9 | 25:24.15 | 3:30.65 | 114315 | 130129
10 | 28:55.05 | 3:37.55 | 130130 | 146459
11 | 32:32.60 | 4:17.00 | 146460 | 165734
12 | 36:49.60 | 1:14.72 | 165735 | 171356
13 | 38:04.57 | 1:17.10 | 171357 | 177141

Track 1

Filename C:\Pink Floyd – The Wall [1994 EMI Records Remaster]\Disc 1\01 – In the Flesh.wav

Pre-gap length 0:00:02.00

Peak level 100.0 %
Extraction speed 2.5 X
Track quality 100.0 %
Test CRC D8D5B442
Copy CRC D8D5B442
Accurately ripped (confidence 135) [743F76C7] (AR v2)
Copy OK

Track 2

Filename C:\Pink Floyd – The Wall [1994 EMI Records Remaster]\Disc 1\02 – The Thin Ice.wav

Peak level 100.0 %
Extraction speed 2.5 X
Track quality 100.0 %
Test CRC 7F33A3C2
Copy CRC 7F33A3C2
Accurately ripped (confidence 136) [E96F68CB] (AR v2)
Copy OK

Track 3

Filename C:\Pink Floyd – The Wall [1994 EMI Records Remaster]\Disc 1\03 – Another Brick in the Wall (Part 1).wav

Peak level 100.0 %
Extraction speed 2.8 X
Track quality 100.0 %
Test CRC 624AD42E
Copy CRC 624AD42E
Accurately ripped (confidence 137) [BE9180F2] (AR v2)
Copy OK

Track 4

Filename C:\Pink Floyd – The Wall [1994 EMI Records Remaster]\Disc 1\04 – The Happiest Days of Our Lives.wav

Peak level 100.0 %
Extraction speed 2.7 X
Track quality 100.0 %
Test CRC 7340207A
Copy CRC 7340207A
Accurately ripped (confidence 139) [0E560ACD] (AR v2)
Copy OK

Track 5

Filename C:\Pink Floyd – The Wall [1994 EMI Records Remaster]\Disc 1\05 – Another Brick in the Wall (Part 2).wav

Peak level 100.0 %
Extraction speed 3.3 X
Track quality 100.0 %
Test CRC B70A4388
Copy CRC B70A4388
Accurately ripped (confidence 137) [11F04288] (AR v2)
Copy OK

Track 6

Filename C:\Pink Floyd – The Wall [1994 EMI Records Remaster]\Disc 1\06 – Mother.wav

Peak level 100.0 %
Extraction speed 3.4 X
Track quality 99.9 %
Test CRC 0EFD47CA
Copy CRC 0EFD47CA
Accurately ripped (confidence 134) [839BEED2] (AR v2)
Copy OK

Track 7

Filename C:\Pink Floyd – The Wall [1994 EMI Records Remaster]\Disc 1\07 – Goodbye Blue Sky.wav

Peak level 54.4 %
Extraction speed 3.5 X
Track quality 100.0 %
Test CRC 470071AA
Copy CRC 470071AA
Accurately ripped (confidence 135) [E5DDBAB9] (AR v2)
Copy OK

Track 8

Filename C:\Pink Floyd – The Wall [1994 EMI Records Remaster]\Disc 1\08 – Empty Spaces.wav

Peak level 62.0 %
Extraction speed 3.5 X
Track quality 100.0 %
Test CRC F60FA6D2
Copy CRC F60FA6D2
Accurately ripped (confidence 134) [CEC03799] (AR v2)
Copy OK

Track 9

Filename C:\Pink Floyd – The Wall [1994 EMI Records Remaster]\Disc 1\09 – Young Lust.wav

Peak level 100.0 %
Extraction speed 3.9 X
Track quality 100.0 %
Test CRC 90F71A34
Copy CRC 90F71A34
Accurately ripped (confidence 134) [18F1791E] (AR v2)
Copy OK

Track 10

Filename C:\Pink Floyd – The Wall [1994 EMI Records Remaster]\Disc 1\10 – One of My Turns.wav

Peak level 100.0 %
Extraction speed 4.1 X
Track quality 100.0 %
Test CRC F163A98D
Copy CRC F163A98D
Accurately ripped (confidence 134) [F2B6D4D6] (AR v2)
Copy OK

Track 11

Filename C:\Pink Floyd – The Wall [1994 EMI Records Remaster]\Disc 1\11 – Don’t Leave Me Now.wav

Peak level 100.0 %
Extraction speed 4.3 X
Track quality 100.0 %
Test CRC 93EF0D31
Copy CRC 93EF0D31
Accurately ripped (confidence 134) [D5627EE0] (AR v2)
Copy OK

Track 12

Filename C:\Pink Floyd – The Wall [1994 EMI Records Remaster]\Disc 1\12 – Another Brick in the Wall (Part 3).wav

Peak level 100.0 %
Extraction speed 3.4 X
Track quality 100.0 %
Test CRC 419E2D8E
Copy CRC 419E2D8E
Accurately ripped (confidence 136) [27960F19] (AR v2)
Copy OK

Track 13

Filename C:\Pink Floyd – The Wall [1994 EMI Records Remaster]\Disc 1\13 – Goodbye Cruel World.wav

Peak level 30.6 %
Extraction speed 3.5 X
Track quality 100.0 %
Test CRC 7A4C0D78
Copy CRC 7A4C0D78
Accurately ripped (confidence 133) [DE6630A1] (AR v2)
Copy OK

All tracks accurately ripped

No errors occurred

End of status report

==== Log checksum E91550DE148D66E861BDF26A0A37A4924B25E34C8D558E11A6C1FA83838DCB92 ====

REM GENRE “Rock”
REM DATE “1979”
REM DISCID A809390D
REM COMMENT “ExactAudioCopy v1.0b3”
PERFORMER “Pink Floyd”
TITLE “The Wall [Disc 1] [1994 EMI Records Remaster]”
FILE “01 – In the Flesh.wav” WAVE
TRACK 01 AUDIO
TITLE “In the Flesh?”
PERFORMER “Pink Floyd”
INDEX 01 00:00:00
FILE “02 – The Thin Ice.wav” WAVE
TRACK 02 AUDIO
TITLE “The Thin Ice”
PERFORMER “Pink Floyd”
INDEX 01 00:00:00
FILE “03 – Another Brick in the Wall (Part 1).wav” WAVE
TRACK 03 AUDIO
TITLE “Another Brick in the Wall (Part 1)”
PERFORMER “Pink Floyd”
INDEX 01 00:00:00
FILE “04 – The Happiest Days of Our Lives.wav” WAVE
TRACK 04 AUDIO
TITLE “The Happiest Days of Our Lives”
PERFORMER “Pink Floyd”
INDEX 01 00:00:00
FILE “05 – Another Brick in the Wall (Part 2).wav” WAVE
TRACK 05 AUDIO
TITLE “Another Brick in the Wall (Part 2)”
PERFORMER “Pink Floyd”
INDEX 01 00:00:00
FILE “06 – Mother.wav” WAVE
TRACK 06 AUDIO
TITLE “Mother”
PERFORMER “Pink Floyd”
INDEX 01 00:00:00
FILE “07 – Goodbye Blue Sky.wav” WAVE
TRACK 07 AUDIO
TITLE “Goodbye Blue Sky”
PERFORMER “Pink Floyd”
INDEX 01 00:00:00
FILE “08 – Empty Spaces.wav” WAVE
TRACK 08 AUDIO
TITLE “Empty Spaces”
PERFORMER “Pink Floyd”
INDEX 01 00:00:00
FILE “09 – Young Lust.wav” WAVE
TRACK 09 AUDIO
TITLE “Young Lust”
PERFORMER “Pink Floyd”
INDEX 01 00:00:00
FILE “10 – One of My Turns.wav” WAVE
TRACK 10 AUDIO
TITLE “One of My Turns”
PERFORMER “Pink Floyd”
INDEX 01 00:00:00
FILE “11 – Don’t Leave Me Now.wav” WAVE
TRACK 11 AUDIO
TITLE “Don’t Leave Me Now”
PERFORMER “Pink Floyd”
INDEX 01 00:00:00
FILE “12 – Another Brick in the Wall (Part 3).wav” WAVE
TRACK 12 AUDIO
TITLE “Another Brick in the Wall (Part 3)”
PERFORMER “Pink Floyd”
INDEX 01 00:00:00
FILE “13 – Goodbye Cruel World.wav” WAVE
TRACK 13 AUDIO
TITLE “Goodbye Cruel World”
PERFORMER “Pink Floyd”
INDEX 01 00:00:00

REM GENRE “Rock”
REM DATE “1979”
REM DISCID 8F09DC0D
REM COMMENT “ExactAudioCopy v1.0b3”
PERFORMER “Pink Floyd”
TITLE “The Wall [Disc 2] [1994 EMI Records Remaster]”
FILE “01 – Hey You.wav” WAVE
TRACK 01 AUDIO
TITLE “Hey You”
PERFORMER “Pink Floyd”
INDEX 01 00:00:00
FILE “02 – Is There Anybody Out There.wav” WAVE
TRACK 02 AUDIO
TITLE “Is There Anybody Out There?”
PERFORMER “Pink Floyd”
INDEX 01 00:00:00
FILE “03 – Nobody Home.wav” WAVE
TRACK 03 AUDIO
TITLE “Nobody Home”
PERFORMER “Pink Floyd”
INDEX 01 00:00:00
FILE “04 – Vera.wav” WAVE
TRACK 04 AUDIO
TITLE “Vera”
PERFORMER “Pink Floyd”
INDEX 01 00:00:00
FILE “05 – Bring the Boys Back Home.wav” WAVE
TRACK 05 AUDIO
TITLE “Bring the Boys Back Home”
PERFORMER “Pink Floyd”
INDEX 01 00:00:00
FILE “06 – Comfortably Numb.wav” WAVE
TRACK 06 AUDIO
TITLE “Comfortably Numb”
PERFORMER “Pink Floyd”
INDEX 01 00:00:00
TRACK 07 AUDIO
TITLE “The Show Must Go On”
PERFORMER “Pink Floyd”
INDEX 00 06:23:21
FILE “07 – The Show Must Go On.wav” WAVE
INDEX 01 00:00:00
FILE “08 – In the Flesh.wav” WAVE
TRACK 08 AUDIO
TITLE “In the Flesh”
PERFORMER “Pink Floyd”
INDEX 01 00:00:00
FILE “09 – Run Like Hell.wav” WAVE
TRACK 09 AUDIO
TITLE “Run Like Hell”
PERFORMER “Pink Floyd”
INDEX 01 00:00:00
FILE “10 – Waiting for the Worms.wav” WAVE
TRACK 10 AUDIO
TITLE “Waiting for the Worms”
PERFORMER “Pink Floyd”
INDEX 01 00:00:00
FILE “11 – Stop.wav” WAVE
TRACK 11 AUDIO
TITLE “Stop”
PERFORMER “Pink Floyd”
INDEX 01 00:00:00
FILE “12 – The Trial.wav” WAVE
TRACK 12 AUDIO
TITLE “The Trial”
PERFORMER “Pink Floyd”
INDEX 01 00:00:00
FILE “13 – Outside the Wall.wav” WAVE
TRACK 13 AUDIO
TITLE “Outside the Wall”
PERFORMER “Pink Floyd”
INDEX 01 00:00:00

Leave a Reply

Your email address will not be published. Required fields are marked *

Enter the text from the image below
 

This site uses Akismet to reduce spam. Learn how your comment data is processed.