Pink Floyd – The Wall (Limited Remastered Japanese Edition)




Artist: Pink Floyd
Year: 1979/2001
Genre: Rock
Notes: Discogs
Add. Notes: Limited Remastered Japanese Edition
Cover incl.: Yes
Encoder: FLAC
Bitrate: ~900 kBit/s (44.1 kHz/16 Bit/s)
Log & Cue incl.: Yes
Size: 1127,68 MB
Password: “slam” (without ” “)


All Downloads/Hosters are compatible

Download 1
Turbobit.net
Rapidgator.net
UploadEver.com
JustUpload.io
UsersDrive.com
Download 2
Turbobit.net
Rapidgator.net
UploadEver.com
JustUpload.io
UsersDrive.com
Download 3
Turbobit.net
Rapidgator.net
UploadEver.com
JustUpload.io
UsersDrive.com

Tracklist:

1.01 - In The Flesh? - 3:16
1.02 - The Thin Ice - 2:27
1.03 - Another Brick In The Wall Part 1 - 3:21
1.04 - The Happiest Days Of Our Lives - 1:46
1.05 - Another Brick In The Wall Part 2 - 3:59
1.06 - Mother - 5:32
1.07 - Goodbye Blue Sky - 2:45
1.08 - Empty Spaces - 2:10
1.09 - Young Lust - 3:25
1.10 - One Of My Turns - 3:41
1.11 - Don't Leave Me Now - 4:08
1.12 - Another Brick In The Wall Part 3 - 1:40
1.13 - Goodbye Cruel World - 0:48
2.01 - Hey You - 4:40
2.02 - Is There Anybody Out There? - 2:44
2.03 - Nobody Home - 3:26
2.04 - Vera - 1:35
2.05 - Bring The Boys Back Home - 1:21
2.06 - Comfortably Numb - 6:23
2.07 - The Show Must Go On - 1:36
2.08 - In The Flesh - 4:15
2.09 - Run Like Hell - 4:20
2.10 - Waiting For The Worms - 4:04
2.11 - Stop - 0:39
2.12 - The Trial - 5:13
2.13 - Outside The Wall - 1:41

EAC-Log, CUE-Sheed & NFO:

Click to open spoiler
Exact Audio Copy V0.99 prebeta 5 from 4. May 2009

EAC extraction logfile from 3. October 2011, 16:50

Pink Floyd / The Wall (Disc 2)

Used drive : SONY CDRW/DVD CRX835E Adapter: 4 ID: 0

Read mode : Secure
Utilize accurate stream : Yes
Defeat audio cache : Yes
Make use of C2 pointers : No

Read offset correction : 6
Overread into Lead-In and Lead-Out : No
Fill up missing offset samples with silence : Yes
Delete leading and trailing silent blocks : No
Null samples used in CRC calculations : Yes
Used interface : Native Win32 interface for Win NT & 2000
Gap handling : Appended to previous track

Used output format : User Defined Encoder
Selected bitrate : 1024 kBit/s
Quality : High
Add ID3 tag : No
Command line compressor : C:\Program Files (x86)\Exact Audio Copy\Flac\flac.exe
Additional command line options : -8 -V -T “ARTIST=%a” -T “TITLE=%t” -T “ALBUM=%g” -T “DATE=%y” -T “TRACKNUMBER=%n” -T “TOTALTRACKS=%x” -T “GENRE=%m” -T “ALBUM ARTIST=%v” -T “ALBUMARTIST=%v” -T “COMMENT=EAC V0.99 prebeta 5, Secure Mode, Test & Copy, Accurat

TOC of the extracted CD

Track | Start | Length | Start sector | End sector
———————————————————
1 | 0:00.00 | 4:40.33 | 0 | 21032
2 | 4:40.33 | 2:41.68 | 21033 | 33175
3 | 7:22.26 | 3:22.67 | 33176 | 48392
4 | 10:45.18 | 1:33.26 | 48393 | 55393
5 | 12:18.44 | 1:27.14 | 55394 | 61932
6 | 13:45.58 | 6:22.24 | 61933 | 90606
7 | 20:08.07 | 1:36.40 | 90607 | 97846
8 | 21:44.47 | 4:15.50 | 97847 | 117021
9 | 26:00.22 | 4:23.42 | 117022 | 136788
10 | 30:23.64 | 3:57.04 | 136789 | 154567
11 | 34:20.68 | 0:30.60 | 154568 | 156877
12 | 34:51.53 | 5:18.47 | 156878 | 180774
13 | 40:10.25 | 1:46.04 | 180775 | 188728

Track 1

Filename C:\Losslessworld.info\Pink Floyd – The Discovery Studio Album Box Set (2011) [FLAC] { Japan, Remastered, 16 CDs, EMI, TOCP-71147-62 }\Pink Floyd – The Wall (1979) [FLAC] { TOCP-71142-43 }\CD2\01 – Hey You.wav

Pre-gap length 0:00:02.00

Peak level 100.0 %
Track quality 100.0 %
Test CRC 8E8A30B6
Copy CRC 8E8A30B6
Copy OK

Track 2

Filename C:\Losslessworld.info\Pink Floyd – The Discovery Studio Album Box Set (2011) [FLAC] { Japan, Remastered, 16 CDs, EMI, TOCP-71147-62 }\Pink Floyd – The Wall (1979) [FLAC] { TOCP-71142-43 }\CD2\02 – Is There Anybody Out There .wav

Peak level 86.3 %
Track quality 100.0 %
Test CRC 92FC539A
Copy CRC 92FC539A
Copy OK

Track 3

Filename C:\Losslessworld.info\Pink Floyd – The Discovery Studio Album Box Set (2011) [FLAC] { Japan, Remastered, 16 CDs, EMI, TOCP-71147-62 }\Pink Floyd – The Wall (1979) [FLAC] { TOCP-71142-43 }\CD2\03 – Nobody Home.wav

Peak level 72.0 %
Track quality 99.9 %
Test CRC 598AC041
Copy CRC 598AC041
Copy OK

Track 4

Filename C:\Losslessworld.info\Pink Floyd – The Discovery Studio Album Box Set (2011) [FLAC] { Japan, Remastered, 16 CDs, EMI, TOCP-71147-62 }\Pink Floyd – The Wall (1979) [FLAC] { TOCP-71142-43 }\CD2\04 – Vera.wav

Peak level 63.6 %
Track quality 100.0 %
Test CRC 6483742F
Copy CRC 6483742F
Copy OK

Track 5

Filename C:\Losslessworld.info\Pink Floyd – The Discovery Studio Album Box Set (2011) [FLAC] { Japan, Remastered, 16 CDs, EMI, TOCP-71147-62 }\Pink Floyd – The Wall (1979) [FLAC] { TOCP-71142-43 }\CD2\05 – Bring The Boys Back Home.wav

Peak level 84.7 %
Track quality 100.0 %
Test CRC 6A6B6BBF
Copy CRC 6A6B6BBF
Copy OK

Track 6

Filename C:\Losslessworld.info\Pink Floyd – The Discovery Studio Album Box Set (2011) [FLAC] { Japan, Remastered, 16 CDs, EMI, TOCP-71147-62 }\Pink Floyd – The Wall (1979) [FLAC] { TOCP-71142-43 }\CD2\06 – Comfortably Numb.wav

Peak level 100.0 %
Track quality 100.0 %
Test CRC F2DEA19F
Copy CRC F2DEA19F
Copy OK

Track 7

Filename C:\Losslessworld.info\Pink Floyd – The Discovery Studio Album Box Set (2011) [FLAC] { Japan, Remastered, 16 CDs, EMI, TOCP-71147-62 }\Pink Floyd – The Wall (1979) [FLAC] { TOCP-71142-43 }\CD2\07 – The Show Must Go On.wav

Peak level 93.0 %
Track quality 100.0 %
Test CRC 9794BB5D
Copy CRC 9794BB5D
Copy OK

Track 8

Filename C:\Losslessworld.info\Pink Floyd – The Discovery Studio Album Box Set (2011) [FLAC] { Japan, Remastered, 16 CDs, EMI, TOCP-71147-62 }\Pink Floyd – The Wall (1979) [FLAC] { TOCP-71142-43 }\CD2\08 – In The Flesh!.wav

Peak level 100.0 %
Track quality 99.9 %
Test CRC 37215F72
Copy CRC 37215F72
Copy OK

Track 9

Filename C:\Losslessworld.info\Pink Floyd – The Discovery Studio Album Box Set (2011) [FLAC] { Japan, Remastered, 16 CDs, EMI, TOCP-71147-62 }\Pink Floyd – The Wall (1979) [FLAC] { TOCP-71142-43 }\CD2\09 – Run Like Hell.wav

Peak level 100.0 %
Track quality 100.0 %
Test CRC BABBE80A
Copy CRC BABBE80A
Copy OK

Track 10

Filename C:\Losslessworld.info\Pink Floyd – The Discovery Studio Album Box Set (2011) [FLAC] { Japan, Remastered, 16 CDs, EMI, TOCP-71147-62 }\Pink Floyd – The Wall (1979) [FLAC] { TOCP-71142-43 }\CD2\10 – Waiting For The Worms.wav

Peak level 100.0 %
Track quality 100.0 %
Test CRC F79D7606
Copy CRC F79D7606
Copy OK

Track 11

Filename C:\Losslessworld.info\Pink Floyd – The Discovery Studio Album Box Set (2011) [FLAC] { Japan, Remastered, 16 CDs, EMI, TOCP-71147-62 }\Pink Floyd – The Wall (1979) [FLAC] { TOCP-71142-43 }\CD2\11 – Stop.wav

Peak level 44.2 %
Track quality 100.0 %
Test CRC 90A4E6E9
Copy CRC 90A4E6E9
Copy OK

Track 12

Filename C:\Losslessworld.info\Pink Floyd – The Discovery Studio Album Box Set (2011) [FLAC] { Japan, Remastered, 16 CDs, EMI, TOCP-71147-62 }\Pink Floyd – The Wall (1979) [FLAC] { TOCP-71142-43 }\CD2\12 – The Trial.wav

Peak level 100.0 %
Track quality 100.0 %
Test CRC 02C5E40F
Copy CRC 02C5E40F
Copy OK

Track 13

Filename C:\Losslessworld.info\Pink Floyd – The Discovery Studio Album Box Set (2011) [FLAC] { Japan, Remastered, 16 CDs, EMI, TOCP-71147-62 }\Pink Floyd – The Wall (1979) [FLAC] { TOCP-71142-43 }\CD2\13 – Outside The Wall.wav

Peak level 17.9 %
Track quality 100.0 %
Test CRC 4B65496A
Copy CRC 4B65496A
Copy OK

No errors occurred

End of status report

Exact Audio Copy V0.99 prebeta 5 from 4. May 2009

EAC extraction logfile from 3. October 2011, 15:49

Pink Floyd / The Wall

Used drive : SONY CDRW/DVD CRX835E Adapter: 4 ID: 0

Read mode : Secure
Utilize accurate stream : Yes
Defeat audio cache : Yes
Make use of C2 pointers : No

Read offset correction : 6
Overread into Lead-In and Lead-Out : No
Fill up missing offset samples with silence : Yes
Delete leading and trailing silent blocks : No
Null samples used in CRC calculations : Yes
Used interface : Native Win32 interface for Win NT & 2000
Gap handling : Appended to previous track

Used output format : User Defined Encoder
Selected bitrate : 1024 kBit/s
Quality : High
Add ID3 tag : No
Command line compressor : C:\Program Files (x86)\Exact Audio Copy\Flac\flac.exe
Additional command line options : -8 -V -T “ARTIST=%a” -T “TITLE=%t” -T “ALBUM=%g” -T “DATE=%y” -T “TRACKNUMBER=%n” -T “TOTALTRACKS=%x” -T “GENRE=%m” -T “ALBUM ARTIST=%v” -T “ALBUMARTIST=%v” -T “COMMENT=EAC V0.99 prebeta 5, Secure Mode, Test & Copy, Accurat

TOC of the extracted CD

Track | Start | Length | Start sector | End sector
———————————————————
1 | 0:00.00 | 3:20.30 | 0 | 15029
2 | 3:20.30 | 2:26.52 | 15030 | 26031
3 | 5:47.07 | 3:11.56 | 26032 | 40412
4 | 8:58.63 | 1:50.63 | 40413 | 48725
5 | 10:49.51 | 3:58.67 | 48726 | 66642
6 | 14:48.43 | 5:34.55 | 66643 | 91747
7 | 20:23.23 | 2:47.26 | 91748 | 104298
8 | 23:10.49 | 2:07.54 | 104299 | 113877
9 | 25:18.28 | 3:29.73 | 113878 | 129625
10 | 28:48.26 | 3:36.60 | 129626 | 145885
11 | 32:25.11 | 4:15.70 | 145886 | 165080
12 | 36:41.06 | 1:14.30 | 165081 | 170660
13 | 37:55.36 | 1:17.29 | 170661 | 176464

Track 1

Filename C:\Losslessworld.info\Pink Floyd – The Discovery Studio Album Box Set (2011) [FLAC] { Japan, Remastered, 16 CDs, EMI, TOCP-71147-62 }\Pink Floyd – The Wall (1979) [FLAC] { TOCP-71142-43 }\CD1\01 – In The Flesh .wav

Pre-gap length 0:00:02.00

Peak level 100.0 %
Track quality 100.0 %
Test CRC 0C48549B
Copy CRC 0C48549B
Copy OK

Track 2

Filename C:\Losslessworld.info\Pink Floyd – The Discovery Studio Album Box Set (2011) [FLAC] { Japan, Remastered, 16 CDs, EMI, TOCP-71147-62 }\Pink Floyd – The Wall (1979) [FLAC] { TOCP-71142-43 }\CD1\02 – The Thin Ice.wav

Peak level 100.0 %
Track quality 100.0 %
Test CRC 0416B358
Copy CRC 0416B358
Copy OK

Track 3

Filename C:\Losslessworld.info\Pink Floyd – The Discovery Studio Album Box Set (2011) [FLAC] { Japan, Remastered, 16 CDs, EMI, TOCP-71147-62 }\Pink Floyd – The Wall (1979) [FLAC] { TOCP-71142-43 }\CD1\03 – Another Brick In The Wall (Part I).wav

Peak level 100.0 %
Track quality 100.0 %
Test CRC EC695A3B
Copy CRC EC695A3B
Copy OK

Track 4

Filename C:\Losslessworld.info\Pink Floyd – The Discovery Studio Album Box Set (2011) [FLAC] { Japan, Remastered, 16 CDs, EMI, TOCP-71147-62 }\Pink Floyd – The Wall (1979) [FLAC] { TOCP-71142-43 }\CD1\04 – The Happiest Days Of Our Lives.wav

Peak level 100.0 %
Track quality 100.0 %
Test CRC 9BE46C18
Copy CRC 9BE46C18
Copy OK

Track 5

Filename C:\Losslessworld.info\Pink Floyd – The Discovery Studio Album Box Set (2011) [FLAC] { Japan, Remastered, 16 CDs, EMI, TOCP-71147-62 }\Pink Floyd – The Wall (1979) [FLAC] { TOCP-71142-43 }\CD1\05 – Another Brick In The Wall (Part II).wav

Peak level 100.0 %
Track quality 100.0 %
Test CRC CBE3F36B
Copy CRC CBE3F36B
Copy OK

Track 6

Filename C:\Losslessworld.info\Pink Floyd – The Discovery Studio Album Box Set (2011) [FLAC] { Japan, Remastered, 16 CDs, EMI, TOCP-71147-62 }\Pink Floyd – The Wall (1979) [FLAC] { TOCP-71142-43 }\CD1\06 – Mother.wav

Peak level 100.0 %
Track quality 99.9 %
Test CRC 89A9BBA0
Copy CRC 89A9BBA0
Copy OK

Track 7

Filename C:\Losslessworld.info\Pink Floyd – The Discovery Studio Album Box Set (2011) [FLAC] { Japan, Remastered, 16 CDs, EMI, TOCP-71147-62 }\Pink Floyd – The Wall (1979) [FLAC] { TOCP-71142-43 }\CD1\07 – Goodbye Blue Sky.wav

Peak level 67.1 %
Track quality 99.9 %
Test CRC DD2234EF
Copy CRC DD2234EF
Copy OK

Track 8

Filename C:\Losslessworld.info\Pink Floyd – The Discovery Studio Album Box Set (2011) [FLAC] { Japan, Remastered, 16 CDs, EMI, TOCP-71147-62 }\Pink Floyd – The Wall (1979) [FLAC] { TOCP-71142-43 }\CD1\08 – Empty Spaces.wav

Peak level 67.6 %
Track quality 100.0 %
Test CRC D1CED4F5
Copy CRC D1CED4F5
Copy OK

Track 9

Filename C:\Losslessworld.info\Pink Floyd – The Discovery Studio Album Box Set (2011) [FLAC] { Japan, Remastered, 16 CDs, EMI, TOCP-71147-62 }\Pink Floyd – The Wall (1979) [FLAC] { TOCP-71142-43 }\CD1\09 – Young Lust.wav

Peak level 100.0 %
Track quality 100.0 %
Test CRC 18932D7A
Copy CRC 18932D7A
Copy OK

Track 10

Filename C:\Losslessworld.info\Pink Floyd – The Discovery Studio Album Box Set (2011) [FLAC] { Japan, Remastered, 16 CDs, EMI, TOCP-71147-62 }\Pink Floyd – The Wall (1979) [FLAC] { TOCP-71142-43 }\CD1\10 – One Of My Turns.wav

Peak level 100.0 %
Track quality 99.9 %
Test CRC CEB110C2
Copy CRC CEB110C2
Copy OK

Track 11

Filename C:\Losslessworld.info\Pink Floyd – The Discovery Studio Album Box Set (2011) [FLAC] { Japan, Remastered, 16 CDs, EMI, TOCP-71147-62 }\Pink Floyd – The Wall (1979) [FLAC] { TOCP-71142-43 }\CD1\11 – Don’t Leave Now.wav

Peak level 100.0 %
Track quality 100.0 %
Test CRC FD38353B
Copy CRC FD38353B
Copy OK

Track 12

Filename C:\Losslessworld.info\Pink Floyd – The Discovery Studio Album Box Set (2011) [FLAC] { Japan, Remastered, 16 CDs, EMI, TOCP-71147-62 }\Pink Floyd – The Wall (1979) [FLAC] { TOCP-71142-43 }\CD1\12 – Another Brick In The Wall (Part III).wav

Peak level 100.0 %
Track quality 99.8 %
Test CRC 53A7B3D3
Copy CRC 53A7B3D3
Copy OK

Track 13

Filename C:\Losslessworld.info\Pink Floyd – The Discovery Studio Album Box Set (2011) [FLAC] { Japan, Remastered, 16 CDs, EMI, TOCP-71147-62 }\Pink Floyd – The Wall (1979) [FLAC] { TOCP-71142-43 }\CD1\13 – Goodbye Cruel World.wav

Peak level 33.0 %
Track quality 99.8 %
Test CRC F0B48F76
Copy CRC F0B48F76
Copy OK

No errors occurred

End of status report

REM GENRE “Progressive Rock”
REM DATE 1979
REM DISCID 9409D40D
REM COMMENT “ExactAudioCopy v0.99pb5”
PERFORMER “Pink Floyd”
TITLE “The Wall (Disc 2)”
FILE “01 – Hey You.wav” WAVE
TRACK 01 AUDIO
TITLE “Hey You”
PERFORMER “Pink Floyd”
INDEX 01 00:00:00
FILE “02 – Is There Anybody Out There .wav” WAVE
TRACK 02 AUDIO
TITLE “Is There Anybody Out There?”
PERFORMER “Pink Floyd”
INDEX 01 00:00:00
FILE “03 – Nobody Home.wav” WAVE
TRACK 03 AUDIO
TITLE “Nobody Home”
PERFORMER “Pink Floyd”
INDEX 01 00:00:00
FILE “04 – Vera.wav” WAVE
TRACK 04 AUDIO
TITLE “Vera”
PERFORMER “Pink Floyd”
INDEX 01 00:00:00
FILE “05 – Bring The Boys Back Home.wav” WAVE
TRACK 05 AUDIO
TITLE “Bring The Boys Back Home”
PERFORMER “Pink Floyd”
INDEX 01 00:00:00
FILE “06 – Comfortably Numb.wav” WAVE
TRACK 06 AUDIO
TITLE “Comfortably Numb”
PERFORMER “Pink Floyd”
INDEX 01 00:00:00
FILE “07 – The Show Must Go On.wav” WAVE
TRACK 07 AUDIO
TITLE “The Show Must Go On”
PERFORMER “Pink Floyd”
INDEX 01 00:00:00
FILE “08 – In The Flesh!.wav” WAVE
TRACK 08 AUDIO
TITLE “In The Flesh!”
PERFORMER “Pink Floyd”
INDEX 01 00:00:00
FILE “09 – Run Like Hell.wav” WAVE
TRACK 09 AUDIO
TITLE “Run Like Hell”
PERFORMER “Pink Floyd”
INDEX 01 00:00:00
FILE “10 – Waiting For The Worms.wav” WAVE
TRACK 10 AUDIO
TITLE “Waiting For The Worms”
PERFORMER “Pink Floyd”
INDEX 01 00:00:00
FILE “11 – Stop.wav” WAVE
TRACK 11 AUDIO
TITLE “Stop”
PERFORMER “Pink Floyd”
INDEX 01 00:00:00
FILE “12 – The Trial.wav” WAVE
TRACK 12 AUDIO
TITLE “The Trial”
PERFORMER “Pink Floyd”
INDEX 01 00:00:00
FILE “13 – Outside The Wall.wav” WAVE
TRACK 13 AUDIO
TITLE “Outside The Wall”
PERFORMER “Pink Floyd”
INDEX 01 00:00:00

REM GENRE “Psychedelic Rock”
REM DATE 1979
REM DISCID 9609300D
REM COMMENT “ExactAudioCopy v0.99pb5”
PERFORMER “Pink Floyd”
TITLE “The Wall”
FILE “01 – In The Flesh .wav” WAVE
TRACK 01 AUDIO
TITLE “In The Flesh?”
PERFORMER “Pink Floyd”
INDEX 01 00:00:00
FILE “02 – The Thin Ice.wav” WAVE
TRACK 02 AUDIO
TITLE “The Thin Ice”
PERFORMER “Pink Floyd”
INDEX 01 00:00:00
FILE “03 – Another Brick In The Wall (Part I).wav” WAVE
TRACK 03 AUDIO
TITLE “Another Brick In The Wall (Part I)”
PERFORMER “Pink Floyd”
INDEX 01 00:00:00
FILE “04 – The Happiest Days Of Our Lives.wav” WAVE
TRACK 04 AUDIO
TITLE “The Happiest Days Of Our Lives”
PERFORMER “Pink Floyd”
INDEX 01 00:00:00
FILE “05 – Another Brick In The Wall (Part II).wav” WAVE
TRACK 05 AUDIO
TITLE “Another Brick In The Wall (Part II)”
PERFORMER “Pink Floyd”
INDEX 01 00:00:00
FILE “06 – Mother.wav” WAVE
TRACK 06 AUDIO
TITLE “Mother”
PERFORMER “Pink Floyd”
INDEX 01 00:00:00
FILE “07 – Goodbye Blue Sky.wav” WAVE
TRACK 07 AUDIO
TITLE “Goodbye Blue Sky”
PERFORMER “Pink Floyd”
INDEX 01 00:00:00
FILE “08 – Empty Spaces.wav” WAVE
TRACK 08 AUDIO
TITLE “Empty Spaces”
PERFORMER “Pink Floyd”
INDEX 01 00:00:00
FILE “09 – Young Lust.wav” WAVE
TRACK 09 AUDIO
TITLE “Young Lust”
PERFORMER “Pink Floyd”
INDEX 01 00:00:00
FILE “10 – One Of My Turns.wav” WAVE
TRACK 10 AUDIO
TITLE “One Of My Turns”
PERFORMER “Pink Floyd”
INDEX 01 00:00:00
FILE “11 – Don’t Leave Now.wav” WAVE
TRACK 11 AUDIO
TITLE “Don’t Leave Now”
PERFORMER “Pink Floyd”
INDEX 01 00:00:00
FILE “12 – Another Brick In The Wall (Part III).wav” WAVE
TRACK 12 AUDIO
TITLE “Another Brick In The Wall (Part III)”
PERFORMER “Pink Floyd”
INDEX 01 00:00:00
FILE “13 – Goodbye Cruel World.wav” WAVE
TRACK 13 AUDIO
TITLE “Goodbye Cruel World”
PERFORMER “Pink Floyd”
INDEX 01 00:00:00

Leave a Reply

Your email address will not be published. Required fields are marked *

Enter the text from the image below
 

This site uses Akismet to reduce spam. Learn how your comment data is processed.