Pink Floyd – The Piper At The Gates Of Dawn (Limited Remastered Japanese Edition)




Artist: Pink Floyd
Year: 1967/2011
Genre: Rock
Notes: Discogs
Add. Notes: Limited Remastered Japanese Edition
Cover incl.: Yes
Encoder: FLAC
Bitrate: ~800 kBit/s (44.1 kHz/16 Bit/s)
Log & Cue incl.: Yes
Size: 344,87 MB
Password: “slam” (without ” “)


All Downloads/Hosters are compatible

Download 1
Turbobit.net
Rapidgator.net
UploadEver.com
JustUpload.io
UsersDrive.com
Download 2
Turbobit.net
Rapidgator.net
UploadEver.com
JustUpload.io
UsersDrive.com
Download 3
Turbobit.net
Rapidgator.net
UploadEver.com
JustUpload.io
UsersDrive.com

Tracklist:

1 - Astronomy Domine - 4:12
2 - Lucifer Sam - 3:07
3 - Matilda Mother - 3:07
4 - Flaming - 2:45
5 - Pow R. Toc H. - 4:26
6 - Take Up Thy Stethoscope And Walk - 3:06
7 - Interstellar Overdrive - 9:41
8 - The Gnome - 2:13
9 - Chapter 24 - 3:41
10 - Scarecrow - 2:10
11 - Bike - 3:22

EAC-Log, CUE-Sheed & NFO:

Click to open spoiler
Exact Audio Copy V0.99 prebeta 5 from 4. May 2009

EAC extraction logfile from 3. October 2011, 14:17

Pink Floyd / The Piper At The Gates Of Dawn

Used drive : SONY CDRW/DVD CRX835E Adapter: 4 ID: 0

Read mode : Secure
Utilize accurate stream : Yes
Defeat audio cache : Yes
Make use of C2 pointers : No

Read offset correction : 6
Overread into Lead-In and Lead-Out : No
Fill up missing offset samples with silence : Yes
Delete leading and trailing silent blocks : No
Null samples used in CRC calculations : Yes
Used interface : Native Win32 interface for Win NT & 2000
Gap handling : Appended to previous track

Used output format : User Defined Encoder
Selected bitrate : 1024 kBit/s
Quality : High
Add ID3 tag : No
Command line compressor : C:\Program Files (x86)\Exact Audio Copy\Flac\flac.exe
Additional command line options : -8 -V -T “ARTIST=%a” -T “TITLE=%t” -T “ALBUM=%g” -T “DATE=%y” -T “TRACKNUMBER=%n” -T “TOTALTRACKS=%x” -T “GENRE=%m” -T “ALBUM ARTIST=%v” -T “ALBUMARTIST=%v” -T “COMMENT=EAC V0.99 prebeta 5, Secure Mode, Test & Copy, Accurat

TOC of the extracted CD

Track | Start | Length | Start sector | End sector
———————————————————
1 | 0:00.00 | 4:12.58 | 0 | 18957
2 | 4:12.58 | 3:07.24 | 18958 | 33006
3 | 7:20.07 | 3:08.38 | 33007 | 47144
4 | 10:28.45 | 2:46.05 | 47145 | 59599
5 | 13:14.50 | 4:26.21 | 59600 | 79570
6 | 17:40.71 | 3:06.11 | 79571 | 93531
7 | 20:47.07 | 9:40.61 | 93532 | 137092
8 | 30:27.68 | 2:13.59 | 137093 | 147126
9 | 32:41.52 | 3:42.29 | 147127 | 163805
10 | 36:24.06 | 2:11.17 | 163806 | 173647
11 | 38:35.23 | 3:23.67 | 173648 | 188939

Track 1

Filename C:\Losslessworld.info\Pink Floyd – The Discovery Studio Album Box Set (2011) [FLAC] { Japan, Remastered, 16 CDs, EMI, TOCP-71147-62 }\Pink Floyd – The Piper At The Gates Of Dawn (1967) [FLAC] { TOCP-71131 }\01 – Astronomy Domine.wav

Pre-gap length 0:00:02.00

Peak level 87.0 %
Track quality 100.0 %
Test CRC CFE2C4F6
Copy CRC CFE2C4F6
Copy OK

Track 2

Filename C:\Losslessworld.info\Pink Floyd – The Discovery Studio Album Box Set (2011) [FLAC] { Japan, Remastered, 16 CDs, EMI, TOCP-71147-62 }\Pink Floyd – The Piper At The Gates Of Dawn (1967) [FLAC] { TOCP-71131 }\02 – Lucifer Sam.wav

Peak level 82.2 %
Track quality 100.0 %
Test CRC 80A0E1E1
Copy CRC 80A0E1E1
Copy OK

Track 3

Filename C:\Losslessworld.info\Pink Floyd – The Discovery Studio Album Box Set (2011) [FLAC] { Japan, Remastered, 16 CDs, EMI, TOCP-71147-62 }\Pink Floyd – The Piper At The Gates Of Dawn (1967) [FLAC] { TOCP-71131 }\03 – Matilda Mother.wav

Peak level 82.2 %
Track quality 100.0 %
Test CRC 53A787C2
Copy CRC 53A787C2
Copy OK

Track 4

Filename C:\Losslessworld.info\Pink Floyd – The Discovery Studio Album Box Set (2011) [FLAC] { Japan, Remastered, 16 CDs, EMI, TOCP-71147-62 }\Pink Floyd – The Piper At The Gates Of Dawn (1967) [FLAC] { TOCP-71131 }\04 – Flaming.wav

Peak level 87.0 %
Track quality 100.0 %
Test CRC 523E2051
Copy CRC 523E2051
Copy OK

Track 5

Filename C:\Losslessworld.info\Pink Floyd – The Discovery Studio Album Box Set (2011) [FLAC] { Japan, Remastered, 16 CDs, EMI, TOCP-71147-62 }\Pink Floyd – The Piper At The Gates Of Dawn (1967) [FLAC] { TOCP-71131 }\05 – Pow R. Toc H..wav

Peak level 87.0 %
Track quality 99.9 %
Test CRC 7F980744
Copy CRC 7F980744
Copy OK

Track 6

Filename C:\Losslessworld.info\Pink Floyd – The Discovery Studio Album Box Set (2011) [FLAC] { Japan, Remastered, 16 CDs, EMI, TOCP-71147-62 }\Pink Floyd – The Piper At The Gates Of Dawn (1967) [FLAC] { TOCP-71131 }\06 – Take Up Thy Stethoscope And Wal

Peak level 87.0 %
Track quality 100.0 %
Test CRC 722B9242
Copy CRC 722B9242
Copy OK

Track 7

Filename C:\Losslessworld.info\Pink Floyd – The Discovery Studio Album Box Set (2011) [FLAC] { Japan, Remastered, 16 CDs, EMI, TOCP-71147-62 }\Pink Floyd – The Piper At The Gates Of Dawn (1967) [FLAC] { TOCP-71131 }\07 – Interstellar Overdrive.wav

Peak level 87.0 %
Track quality 100.0 %
Test CRC 41D24C8D
Copy CRC 41D24C8D
Copy OK

Track 8

Filename C:\Losslessworld.info\Pink Floyd – The Discovery Studio Album Box Set (2011) [FLAC] { Japan, Remastered, 16 CDs, EMI, TOCP-71147-62 }\Pink Floyd – The Piper At The Gates Of Dawn (1967) [FLAC] { TOCP-71131 }\08 – The Gnome.wav

Peak level 87.0 %
Track quality 99.9 %
Test CRC C70A5618
Copy CRC C70A5618
Copy OK

Track 9

Filename C:\Losslessworld.info\Pink Floyd – The Discovery Studio Album Box Set (2011) [FLAC] { Japan, Remastered, 16 CDs, EMI, TOCP-71147-62 }\Pink Floyd – The Piper At The Gates Of Dawn (1967) [FLAC] { TOCP-71131 }\09 – Chapter 24.wav

Peak level 86.8 %
Track quality 100.0 %
Test CRC D0815FDC
Copy CRC D0815FDC
Copy OK

Track 10

Filename C:\Losslessworld.info\Pink Floyd – The Discovery Studio Album Box Set (2011) [FLAC] { Japan, Remastered, 16 CDs, EMI, TOCP-71147-62 }\Pink Floyd – The Piper At The Gates Of Dawn (1967) [FLAC] { TOCP-71131 }\10 – Scarecrow.wav

Peak level 87.0 %
Track quality 100.0 %
Test CRC ACAAAACE
Copy CRC ACAAAACE
Copy OK

Track 11

Filename C:\Losslessworld.info\Pink Floyd – The Discovery Studio Album Box Set (2011) [FLAC] { Japan, Remastered, 16 CDs, EMI, TOCP-71147-62 }\Pink Floyd – The Piper At The Gates Of Dawn (1967) [FLAC] { TOCP-71131 }\11 – Bike.wav

Peak level 87.0 %
Track quality 99.9 %
Test CRC 85C9D54F
Copy CRC 85C9D54F
Copy OK

No errors occurred

End of status report

REM GENRE “Psychedelic Rock”
REM DATE 1967
REM DISCID 9409D70B
REM COMMENT “ExactAudioCopy v0.99pb5”
PERFORMER “Pink Floyd”
TITLE “The Piper At The Gates Of Dawn”
FILE “01 – Astronomy Domine.wav” WAVE
TRACK 01 AUDIO
TITLE “Astronomy Domine”
PERFORMER “Pink Floyd”
INDEX 01 00:00:00
FILE “02 – Lucifer Sam.wav” WAVE
TRACK 02 AUDIO
TITLE “Lucifer Sam”
PERFORMER “Pink Floyd”
INDEX 01 00:00:00
FILE “03 – Matilda Mother.wav” WAVE
TRACK 03 AUDIO
TITLE “Matilda Mother”
PERFORMER “Pink Floyd”
INDEX 01 00:00:00
FILE “04 – Flaming.wav” WAVE
TRACK 04 AUDIO
TITLE “Flaming”
PERFORMER “Pink Floyd”
INDEX 01 00:00:00
FILE “05 – Pow R. Toc H..wav” WAVE
TRACK 05 AUDIO
TITLE “Pow R. Toc H.”
PERFORMER “Pink Floyd”
INDEX 01 00:00:00
FILE “06 – Take Up Thy Stethoscope And Walk.wav” WAVE
TRACK 06 AUDIO
TITLE “Take Up Thy Stethoscope And Walk”
PERFORMER “Pink Floyd”
INDEX 01 00:00:00
FILE “07 – Interstellar Overdrive.wav” WAVE
TRACK 07 AUDIO
TITLE “Interstellar Overdrive”
PERFORMER “Pink Floyd”
INDEX 01 00:00:00
FILE “08 – The Gnome.wav” WAVE
TRACK 08 AUDIO
TITLE “The Gnome”
PERFORMER “Pink Floyd”
INDEX 01 00:00:00
FILE “09 – Chapter 24.wav” WAVE
TRACK 09 AUDIO
TITLE “Chapter 24”
PERFORMER “Pink Floyd”
INDEX 01 00:00:00
FILE “10 – Scarecrow.wav” WAVE
TRACK 10 AUDIO
TITLE “Scarecrow”
PERFORMER “Pink Floyd”
INDEX 01 00:00:00
FILE “11 – Bike.wav” WAVE
TRACK 11 AUDIO
TITLE “Bike”
PERFORMER “Pink Floyd”
INDEX 01 00:00:00

Leave a Reply

Your email address will not be published. Required fields are marked *

Enter the text from the image below
 

This site uses Akismet to reduce spam. Learn how your comment data is processed.