Pink Floyd – The Final Cut (Limited Remastered Japanese Edition)




No Cover available

Artist: Pink Floyd
Year: 1983/2011
Genre: Rock
Notes: Discogs
Add. Notes: Limited Remastered Japanese Edition
Watch Songs on: YouTube
Cover incl.: Yes
Encoder: FLAC
Bitrate: ~700 kBit/s (44.1 kHz/16 Bit/s)
Log & Cue incl.: Yes/Yes
Size: 361,1 MB
Password: “slam” (without ” “)


All Downloads/Hosters are compatible

Download 1
KatFile.com
Turbobit.net
FileFactory.com
Rapidgator.net
Download 2
KatFile.com
Turbobit.net
FileFactory.com
Rapidgator.net

Tracklist:

1 - The Post War Dream - 3:00
2 - Your Possible Pasts - 4:26
3 - One Of The Few - 1:11
4 - When The Tigers Broke Free - 3:16
5 - The Hero's Return - 2:42
6 - The Gunner's Dream - 5:18
7 - Paranoid Eyes - 3:41
8 - Get Your Filthy Hands Off My Desert - 1:17
9 - The Fletcher Memorial Home - 4:12
10 - Southampton Dock - 2:10
11 - The Final Cut - 4:45
12 - Not Now John - 4:56
13 - Two Suns In The Sunset - 5:20

EAC-Log, CUE-Sheed & NFO:

Click to open spoiler
Exact Audio Copy V0.99 prebeta 5 from 4. May 2009

EAC extraction logfile from 3. October 2011, 11:46

Pink Floyd / The Final Cut

Used drive : SONY CDRW/DVD CRX835E Adapter: 4 ID: 0

Read mode : Secure
Utilize accurate stream : Yes
Defeat audio cache : Yes
Make use of C2 pointers : No

Read offset correction : 6
Overread into Lead-In and Lead-Out : No
Fill up missing offset samples with silence : Yes
Delete leading and trailing silent blocks : No
Null samples used in CRC calculations : Yes
Used interface : Native Win32 interface for Win NT & 2000
Gap handling : Appended to previous track

Used output format : User Defined Encoder
Selected bitrate : 1024 kBit/s
Quality : High
Add ID3 tag : No
Command line compressor : C:\Program Files (x86)\Exact Audio Copy\Flac\flac.exe
Additional command line options : -8 -V -T “ARTIST=%a” -T “TITLE=%t” -T “ALBUM=%g” -T “DATE=%y” -T “TRACKNUMBER=%n” -T “TOTALTRACKS=%x” -T “GENRE=%m” -T “ALBUM ARTIST=%v” -T “ALBUMARTIST=%v” -T “COMMENT=EAC V0.99 prebeta 5, Secure Mode, Test & Copy, Accurat

TOC of the extracted CD

Track | Start | Length | Start sector | End sector
———————————————————
1 | 0:00.00 | 3:00.65 | 0 | 13564
2 | 3:00.65 | 4:26.23 | 13565 | 33537
3 | 7:27.13 | 1:13.73 | 33538 | 39085
4 | 8:41.11 | 3:15.18 | 39086 | 53728
5 | 11:56.29 | 2:42.61 | 53729 | 65939
6 | 14:39.15 | 5:18.17 | 65940 | 89806
7 | 19:57.32 | 3:41.45 | 89807 | 106426
8 | 23:39.02 | 1:16.68 | 106427 | 112194
9 | 24:55.70 | 4:10.60 | 112195 | 131004
10 | 29:06.55 | 2:12.19 | 131005 | 140923
11 | 31:18.74 | 4:42.34 | 140924 | 162107
12 | 36:01.33 | 5:01.16 | 162108 | 184698
13 | 41:02.49 | 5:18.46 | 184699 | 208594

Track 1

Filename C:\Losslessworld.info\Pink Floyd – The Discovery Studio Album Box Set (2011) [FLAC] { Japan, Remastered, 16 CDs, EMI, TOCP-71147-62 }\Pink Floyd – The Final Cut (1983) [FLAC] { TOCP-71144 }\01 – The Post War Dream.wav

Pre-gap length 0:00:02.00

Peak level 100.0 %
Track quality 100.0 %
Test CRC 405EEF97
Copy CRC 405EEF97
Copy OK

Track 2

Filename C:\Losslessworld.info\Pink Floyd – The Discovery Studio Album Box Set (2011) [FLAC] { Japan, Remastered, 16 CDs, EMI, TOCP-71147-62 }\Pink Floyd – The Final Cut (1983) [FLAC] { TOCP-71144 }\02 – Your Possible Pasts.wav

Peak level 100.0 %
Track quality 99.9 %
Test CRC F1C28893
Copy CRC F1C28893
Copy OK

Track 3

Filename C:\Losslessworld.info\Pink Floyd – The Discovery Studio Album Box Set (2011) [FLAC] { Japan, Remastered, 16 CDs, EMI, TOCP-71147-62 }\Pink Floyd – The Final Cut (1983) [FLAC] { TOCP-71144 }\03 – One of the Few.wav

Peak level 46.8 %
Track quality 100.0 %
Test CRC 035402F2
Copy CRC 035402F2
Copy OK

Track 4

Filename C:\Losslessworld.info\Pink Floyd – The Discovery Studio Album Box Set (2011) [FLAC] { Japan, Remastered, 16 CDs, EMI, TOCP-71147-62 }\Pink Floyd – The Final Cut (1983) [FLAC] { TOCP-71144 }\04 – When the Tigers Broke Free.wav

Peak level 77.0 %
Track quality 99.9 %
Test CRC C80A3F84
Copy CRC C80A3F84
Copy OK

Track 5

Filename C:\Losslessworld.info\Pink Floyd – The Discovery Studio Album Box Set (2011) [FLAC] { Japan, Remastered, 16 CDs, EMI, TOCP-71147-62 }\Pink Floyd – The Final Cut (1983) [FLAC] { TOCP-71144 }\05 – The Hero’s Return.wav

Peak level 100.0 %
Track quality 100.0 %
Test CRC DAAC57AD
Copy CRC DAAC57AD
Copy OK

Track 6

Filename C:\Losslessworld.info\Pink Floyd – The Discovery Studio Album Box Set (2011) [FLAC] { Japan, Remastered, 16 CDs, EMI, TOCP-71147-62 }\Pink Floyd – The Final Cut (1983) [FLAC] { TOCP-71144 }\06 – The Gunner’s Dream.wav

Peak level 100.0 %
Track quality 100.0 %
Test CRC 4570C2B1
Copy CRC 4570C2B1
Copy OK

Track 7

Filename C:\Losslessworld.info\Pink Floyd – The Discovery Studio Album Box Set (2011) [FLAC] { Japan, Remastered, 16 CDs, EMI, TOCP-71147-62 }\Pink Floyd – The Final Cut (1983) [FLAC] { TOCP-71144 }\07 – Paranoid Eyes.wav

Peak level 100.0 %
Track quality 100.0 %
Test CRC 75FF6FA8
Copy CRC 75FF6FA8
Copy OK

Track 8

Filename C:\Losslessworld.info\Pink Floyd – The Discovery Studio Album Box Set (2011) [FLAC] { Japan, Remastered, 16 CDs, EMI, TOCP-71147-62 }\Pink Floyd – The Final Cut (1983) [FLAC] { TOCP-71144 }\08 – Get Your Filthy Hands Off My Desert.wav

Peak level 100.0 %
Track quality 100.0 %
Test CRC 707B1F1D
Copy CRC 707B1F1D
Copy OK

Track 9

Filename C:\Losslessworld.info\Pink Floyd – The Discovery Studio Album Box Set (2011) [FLAC] { Japan, Remastered, 16 CDs, EMI, TOCP-71147-62 }\Pink Floyd – The Final Cut (1983) [FLAC] { TOCP-71144 }\09 – The Fletcher Memorial Home.wav

Peak level 100.0 %
Track quality 100.0 %
Test CRC 5A1838A8
Copy CRC 5A1838A8
Copy OK

Track 10

Filename C:\Losslessworld.info\Pink Floyd – The Discovery Studio Album Box Set (2011) [FLAC] { Japan, Remastered, 16 CDs, EMI, TOCP-71147-62 }\Pink Floyd – The Final Cut (1983) [FLAC] { TOCP-71144 }\10 – Southampton Dock.wav

Peak level 69.7 %
Track quality 100.0 %
Test CRC FC56DEAC
Copy CRC FC56DEAC
Copy OK

Track 11

Filename C:\Losslessworld.info\Pink Floyd – The Discovery Studio Album Box Set (2011) [FLAC] { Japan, Remastered, 16 CDs, EMI, TOCP-71147-62 }\Pink Floyd – The Final Cut (1983) [FLAC] { TOCP-71144 }\11 – The Final Cut.wav

Peak level 100.0 %
Track quality 100.0 %
Test CRC AEC20655
Copy CRC AEC20655
Copy OK

Track 12

Filename C:\Losslessworld.info\Pink Floyd – The Discovery Studio Album Box Set (2011) [FLAC] { Japan, Remastered, 16 CDs, EMI, TOCP-71147-62 }\Pink Floyd – The Final Cut (1983) [FLAC] { TOCP-71144 }\12 – Not Now John.wav

Peak level 100.0 %
Track quality 100.0 %
Test CRC 50F13568
Copy CRC 50F13568
Copy OK

Track 13

Filename C:\Losslessworld.info\Pink Floyd – The Discovery Studio Album Box Set (2011) [FLAC] { Japan, Remastered, 16 CDs, EMI, TOCP-71147-62 }\Pink Floyd – The Final Cut (1983) [FLAC] { TOCP-71144 }\13 – Two Suns In The Sunset.wav

Peak level 94.6 %
Track quality 100.0 %
Test CRC 6840B50B
Copy CRC 6840B50B
Copy OK

No errors occurred

End of status report

REM GENRE “Psychedelic Rock”
REM DATE 1983
REM DISCID BB0ADD0D
REM COMMENT “ExactAudioCopy v0.99pb5”
PERFORMER “Pink Floyd”
TITLE “The Final Cut”
FILE “01 – The Post War Dream.wav” WAVE
TRACK 01 AUDIO
TITLE “The Post War Dream”
PERFORMER “Pink Floyd”
INDEX 01 00:00:00
FILE “02 – Your Possible Pasts.wav” WAVE
TRACK 02 AUDIO
TITLE “Your Possible Pasts”
PERFORMER “Pink Floyd”
INDEX 01 00:00:00
FILE “03 – One of the Few.wav” WAVE
TRACK 03 AUDIO
TITLE “One of the Few”
PERFORMER “Pink Floyd”
INDEX 01 00:00:00
FILE “04 – When the Tigers Broke Free.wav” WAVE
TRACK 04 AUDIO
TITLE “When the Tigers Broke Free”
PERFORMER “Pink Floyd”
INDEX 01 00:00:00
FILE “05 – The Hero’s Return.wav” WAVE
TRACK 05 AUDIO
TITLE “The Hero’s Return”
PERFORMER “Pink Floyd”
INDEX 01 00:00:00
FILE “06 – The Gunner’s Dream.wav” WAVE
TRACK 06 AUDIO
TITLE “The Gunner’s Dream”
PERFORMER “Pink Floyd”
INDEX 01 00:00:00
FILE “07 – Paranoid Eyes.wav” WAVE
TRACK 07 AUDIO
TITLE “Paranoid Eyes”
PERFORMER “Pink Floyd”
INDEX 01 00:00:00
FILE “08 – Get Your Filthy Hands Off My Desert.wav” WAVE
TRACK 08 AUDIO
TITLE “Get Your Filthy Hands Off My Desert”
PERFORMER “Pink Floyd”
INDEX 01 00:00:00
FILE “09 – The Fletcher Memorial Home.wav” WAVE
TRACK 09 AUDIO
TITLE “The Fletcher Memorial Home”
PERFORMER “Pink Floyd”
INDEX 01 00:00:00
FILE “10 – Southampton Dock.wav” WAVE
TRACK 10 AUDIO
TITLE “Southampton Dock”
PERFORMER “Pink Floyd”
INDEX 01 00:00:00
FILE “11 – The Final Cut.wav” WAVE
TRACK 11 AUDIO
TITLE “The Final Cut”
PERFORMER “Pink Floyd”
INDEX 01 00:00:00
FILE “12 – Not Now John.wav” WAVE
TRACK 12 AUDIO
TITLE “Not Now John”
PERFORMER “Pink Floyd”
INDEX 01 00:00:00
FILE “13 – Two Suns In The Sunset.wav” WAVE
TRACK 13 AUDIO
TITLE “Two Suns In The Sunset”
PERFORMER “Pink Floyd”
INDEX 01 00:00:00


Leave a Reply

Your email address will not be published. Required fields are marked *

Enter the text from the image below
 

This site uses Akismet to reduce spam. Learn how your comment data is processed.