Pink Floyd – The Early Years 1965 – 1972 (Box-Set)




Artist: Pink Floyd
Year: 2016
Genre: Rock
Notes: Discogs
Add. Notes: Box-Set
Encoder: FLAC
Bitrate: ~700 kBit/s (VBR)
Size: 4243,07 MB
Password: “slam” (without ” “)


Tracklist:

 	1965-67 Cambridge St/ation
CD1-1 	Lucy Leave 	2:57
CD1-2 	Double O Bo 	2:57
CD1-3 	Remember Me 	2:46
CD1-4 	Walk With Me Sydney 	3:11
CD1-5 	Butterfly 	3:00
CD1-6 	I’m A King Bee 	3:13
CD1-7 	Arnold Layne 	2:57
CD1-8 	See Emily Play 	2:55
CD1-9 	Apples And Oranges 	3:05
CD1-10 	Candy And A Currant Bun 	2:45
CD1-11 	Paintbox 	3:48
CD1-12 	Matilda Mother (2010 Mix) 	4:01
CD1-13 	Jugband Blues (2010 Mix) 	3:01
CD1-14 	In The Beechwoods (2010 Mix) 	4:43
CD1-15 	Vegetable Man (2010 Mix) 	2:32
CD1-16 	Scream Thy Last Scream (2010 Mix) 	4:43
	Live in Stockholm 1967:
CD2-1 	Introduction 	0:25
CD2-2 	Reaction In G 	7:18
CD2-3 	Matilda Mother 	5:34
CD2-4 	Pow R. Toc H. 	11:56
CD2-5 	Scream Thy Last Scream 	4:00
CD2-6 	Set The Controls For The Heart Of The Sun 
	7:17
CD2-7 	See Emily Play 	3:16
CD2-8 	Interstellar Overdrive 	8:57
	John Latham (studio recordings 1967)
CD2-9 	John Latham Version 1 	4:32
CD2-10 	John Latham Version 2 	5:06
CD2-11 	John Latham Version 3 	3:45
CD2-12 	John Latham Version 4 	2:59
CD2-13 	John Latham Version 5 	2:48
CD2-14 	John Latham Version 6 	3:17
CD2-15 	John Latham Version 7 	2:36
CD2-16 	John Latham Version 8 	2:49
CD2-17 	John Latham Version 9 	2:38

	1968 Germin/ation
CD3-1 	Point Me At The Sky 	3:40
CD3-2 	It Would Be So Nice 	3:46
CD3-3 	Julia Dream 	2:34
CD3-4 	Careful With That Axe, Eugene (Single Version) 
	5:46
CD3-5 	Song 1, Capitol Studios 	3:19
CD3-6 	Roger’s Boogie, Capitol Studios 	4:35
	BBC Radio Session 25 June 1968
CD3-7 	Murderotic Woman (Careful With That Axe, 
Eugene) 	3:38
CD3-8 	The Massed Gadgets Of Hercules (A Saucerful 
Of Secrets) 	7:18
CD3-9 	Let There Be More Light 	4:32
CD3-10 	Julia Dream 	2:50
	BBC Radio Session, 20 December 1968
CD3-11 	Point Me At The Sky 	4:25
CD3-12 	Embryo 	3:13
CD3-13 	Interstellar Overdrive 	9:37
	1968 Germin/ation DVD
	Tienerklanken’, Brussels, Belgium, 18-19 
February 1968
	'Tienerklanken’, Brussels, Belgium, 18-19 
February 1968 	(22:28)

	1969 Dramatis/Ation
	‘More’ Album Non-album Tracks
CD4-1 	Hollywood (Non-Album Track) 	1:21
CD4-2 	Theme (Beat Version) (Alternative Version) 
	5:38
CD4-3 	More Blues (Alternative Version) 	3:49
CD4-4 	Seabirds (Non-Album Track) 	4:20
CD4-5 	Embryo (From ‘Picnic’, Harvest Records 
Sampler) 	4:43
	BBC Radio Session, 12 May 1969:
CD4-6 	Grantchester Meadows 	3:36
CD4-7 	Cymbaline 	3:38
CD4-8 	The Narrow Way 	4:48
CD4-9 	Green Is The Colour / 	3:21
CD4-10 	Careful With That Axe, Eugene 	3:29
	Live At The Paradiso, Amsterdam, 9 August 
1969
CD4-11 	Interstellar Overdrive 	4:20
CD4-12 	Set The Controls For The Heart Of The Sun 
	12:25
CD4-13 	Careful With That Axe, Eugene 	10:09
CD4-14 	A Saucerful Of Secrets 	13:03
	Part 1: ‘The Man’, Amsterdam, 17 September 
1969
CD5-1 	Daybreak (Grantchester Meadows) 	8:14
CD5-2 	Work 	4:12
CD5-3 	Afternoon (Biding My Time) 	6:39
CD5-4 	Doing It 	3:54
CD5-5 	Sleeping 	4:38
CD5-6 	Nightmare (Cymbaline) 	9:15
CD5-7 	Labyrinth 	1:10
	Part 2: ‘The Journey’, Amsterdam, 17 
September 1969
CD5-8 	The Beginning (Green Is The Colour) 	3:25
CD5-9 	Beset By Creatures Of The Deep (Careful With 
That Axe, Eugene) 	6:27
CD5-10 	The Narrow Way, Part 3 	5:11
CD5-11 	The Pink Jungle (Pow R. Toc H.) 	4:56
CD5-12 	The Labyrinths Of Auximines 	3:20
CD5-13 	Footsteps / Doors 	3:12
CD5-14 	Behold The Temple Of Light 	5:32
CD5-15 	The End Of The Beginning (A Saucerful Of 
Secrets) 	6:31

	1970 Devi/Ation
CD6-1 	Atom Heart Mother: Live In Montreux, 21 
November 1970 	17:58
	BBC Radio Session, 16 July 1970:
CD6-2 	Embryo 	11:10
CD6-3 	Fat Old Sun 	5:52
CD6-4 	Green Is The Colour 	3:27
CD6-5 	Careful With That Axe, Eugene 	8:25
CD6-6 	If 	5:47
CD6-7 	Atom Heart Mother (With Choir, Cello And 
Brass Ensemble) 	25:30

	Unreleased tracks from the ‘Zabriskie Point’ 
soundtrack recordings
CD7-1 	On The Highway 	1:16
CD7-2 	Auto Scene Version 2 	1:13
CD7-3 	Auto Scene Version 3 	1:33
CD7-4 	Aeroplane 	2:18
CD7-5 	Explosion 	5:47
CD7-6 	The Riot Scene 	1:40
CD7-7 	Looking At Map 	1:57
CD7-8 	Love Scene Version 7 	5:03
CD7-9 	Love Scene Version 1 	3:26
CD7-10 	Take Off 	1:20
CD7-11 	Take Off Version 2 	1:12
CD7-12 	Love Scene Version 2 	1:56
CD7-13 	Love Scene (Take 1) 	2:16
CD7-14 	Unknown Song (Take 1) 	5:56
CD7-15 	Love Scene (Take 2) 	6:40
CD7-16 	Crumbling Land (Take 1) 	4:09
	Early Studio Version
CD7-17 	Atom Heart Mother: Early Studio Version, Band 
Only 	19:15
	1970 Devi/Ation DVD

	1971 Reverber/Ation
CD8-1 	Nothing Part 14 (Echoes Work In Progress) 
	7:01
	BBC Radio Session, 30 September 1971:
CD8-2 	Fat Old Sun 	15:33
CD8-3 	One Of These Days 	7:19
CD8-4 	Embryo 	10:43
CD8-5 	Echoes 	26:25

	1972 Obfusc/Ation
	Obscured By Clouds 2016 Remix
CD9-1 	Obscured By Clouds 	3:03
CD9-2 	When You're In 	2:31
CD9-3 	Burning Bridges 	3:30
CD9-4 	The Gold It's In The... 	3:07
CD9-5 	Wot's...Uh The Deal 	5:09
CD9-6 	Mudmen 	4:18
CD9-7 	Childhood's End 	4:33
CD9-8 	Free Four 	4:16
CD9-9 	Stay 	4:06
CD9-10 	Absolutely Curtains 	5:52

	BBC Radio Session, 25 September 1967:
CD10-1 	Flaming 	2:42
CD10-2 	The Scarecrow 	1:59
CD10-3 	The Gnome 	2:08
CD10-4 	Matilda Mother 	3:20
CD10-5 	Reaction In G 	0:34
CD10-6 	Set The Controls For The Heart Of The Sun 
	3:19
	BBC Radio Session, 20 December 1967:
CD10-7 	Scream Thy Last Scream 	3:35
CD10-8 	Vegetable Man 	3:07
CD10-9 	Pow R. Toc H. 	2:45
CD10-10 	Jugband Blues 	3:50
	BBC Radio Session, 2 December 1968:
CD10-11 	Baby Blue Shuffle In D Major 	3:58
CD10-12 	Blues 	4:59
	Other Recordings
CD10-13 	US Radio Ad 	0:22
CD10-14 	Music From The Committee No. 1 	1:06
CD10-15 	Music From The Committee No. 2 	3:25
	Live On 1969 Bbc Tv Moon Landings Broadcast
CD10-16 	Moonhead 	7:16
	Live At Wembley 1974
CD10-17 	Echoes 	24:10

	A Supplementary Disc - Live In Pompeii (Stereo 
2016 Mix)
CD11-1 	Careful With That Axe, Eugene 	6:44
CD11-2 	Set The Controls For The Heart Of The Sun 
	10:35
CD11-3 	One Of These Days 	5:50
CD11-4 	A Saucerful Of Secrets 	12:49
CD11-5 	Echoes 	24:56
CD11-6 	Careful With That Axe, Eugene (Alternate 
Take) 	6:05

EAC-Log, CUE-Sheed & NFO:

Click to open spoiler
Exact Audio Copy V1.0 beta 3 from 29. August 2011

EAC extraction logfile from 10. November 2016, 22:56

Pink Floyd / 1965-1967 Cambridge St/ation CD1

Used drive : HL-DT-STBD-RE WH12LS39 Adapter: 1 ID: 1

Read mode : Secure
Utilize accurate stream : Yes
Defeat audio cache : Yes
Make use of C2 pointers : No

Read offset correction : 667
Overread into Lead-In and Lead-Out : No
Fill up missing offset samples with silence : Yes
Delete leading and trailing silent blocks : No
Null samples used in CRC calculations : Yes
Used interface : Native Win32 interface for Win NT & 2000
Gap handling : Appended to previous track

Used output format : User Defined Encoder
Selected bitrate : 1024 kBit/s
Quality : High
Add ID3 tag : No
Command line compressor : C:\Program Files (x86)\Exact Audio Copy\FLAC\FLAC.EXE
Additional command line options : -8 -V -T “ARTIST=%artist%” -T “TITLE=%title%” -T “ALBUM=%albumtitle%” -T “DATE=%year%” -T “TRACKNUMBER=%tracknr%” -T “GENRE=%genre%” -T “PERFORMER=%albuminterpret%” -T “COMPOSER=%composer%” %haslyrics%–tag-from-file=LYRICS=”%lyricsfile%”%haslyrics% -T “ALBUMARTIST=%albumartist%” -T “DISCNUMBER=%cdnumber%” -T “TOTALDISCS=%totalcds%” -T “TOTALTRACKS=%numtracks%” -T “COMMENT=%comment%” %source% -o %dest%

TOC of the extracted CD

Track | Start | Length | Start sector | End sector
———————————————————
1 | 0:00.00 | 2:57.02 | 0 | 13276
2 | 2:57.02 | 2:56.61 | 13277 | 26537
3 | 5:53.63 | 2:45.45 | 26538 | 38957
4 | 8:39.33 | 3:11.01 | 38958 | 53283
5 | 11:50.34 | 3:00.25 | 53284 | 66808
6 | 14:50.59 | 3:14.00 | 66809 | 81358
7 | 18:04.59 | 2:56.07 | 81359 | 94565
8 | 21:00.66 | 2:54.52 | 94566 | 107667
9 | 23:55.43 | 3:04.21 | 107668 | 121488
10 | 26:59.64 | 2:45.72 | 121489 | 133935
11 | 29:45.61 | 3:47.32 | 133936 | 150992
12 | 33:33.18 | 3:59.31 | 150993 | 168948
13 | 37:32.49 | 3:02.19 | 168949 | 182617
14 | 40:34.68 | 4:43.24 | 182618 | 203866
15 | 45:18.17 | 2:31.52 | 203867 | 215243
16 | 47:49.69 | 4:42.40 | 215244 | 236433

Track 1

Filename E:\Rips\Pink Floyd\The Early Years 1965-1972\1965-1967 Cambridge St-ation\CD01\01 Lucy leave.wav

Pre-gap length 0:00:02.00

Peak level 92.0 %
Extraction speed 1.0 X
Track quality 100.0 %
Test CRC AD98DA4C
Copy CRC AD98DA4C
Track not present in AccurateRip database
Copy OK

Track 2

Filename E:\Rips\Pink Floyd\The Early Years 1965-1972\1965-1967 Cambridge St-ation\CD01\02 Double O Bo.wav

Peak level 95.0 %
Extraction speed 1.1 X
Track quality 100.0 %
Test CRC F63A06D6
Copy CRC F63A06D6
Track not present in AccurateRip database
Copy OK

Track 3

Filename E:\Rips\Pink Floyd\The Early Years 1965-1972\1965-1967 Cambridge St-ation\CD01\03 Remember Me.wav

Peak level 69.1 %
Extraction speed 1.2 X
Track quality 100.0 %
Test CRC FDBC5C33
Copy CRC FDBC5C33
Track not present in AccurateRip database
Copy OK

Track 4

Filename E:\Rips\Pink Floyd\The Early Years 1965-1972\1965-1967 Cambridge St-ation\CD01\04 Walk With Me Sydney.wav

Peak level 76.1 %
Extraction speed 1.3 X
Track quality 100.0 %
Test CRC FED98C8E
Copy CRC FED98C8E
Track not present in AccurateRip database
Copy OK

Track 5

Filename E:\Rips\Pink Floyd\The Early Years 1965-1972\1965-1967 Cambridge St-ation\CD01\05 Butterfly.wav

Peak level 71.4 %
Extraction speed 1.3 X
Track quality 100.0 %
Test CRC 09D008F4
Copy CRC 09D008F4
Track not present in AccurateRip database
Copy OK

Track 6

Filename E:\Rips\Pink Floyd\The Early Years 1965-1972\1965-1967 Cambridge St-ation\CD01\06 I’m A King Bee.wav

Peak level 94.2 %
Extraction speed 1.4 X
Track quality 100.0 %
Test CRC C074F848
Copy CRC C074F848
Track not present in AccurateRip database
Copy OK

Track 7

Filename E:\Rips\Pink Floyd\The Early Years 1965-1972\1965-1967 Cambridge St-ation\CD01\07 Arnold Layne.wav

Peak level 85.4 %
Extraction speed 1.5 X
Track quality 100.0 %
Test CRC 1608D0BB
Copy CRC 1608D0BB
Track not present in AccurateRip database
Copy OK

Track 8

Filename E:\Rips\Pink Floyd\The Early Years 1965-1972\1965-1967 Cambridge St-ation\CD01\08 See Emily Play.wav

Peak level 85.7 %
Extraction speed 1.5 X
Track quality 100.0 %
Test CRC 697D47F6
Copy CRC 697D47F6
Track not present in AccurateRip database
Copy OK

Track 9

Filename E:\Rips\Pink Floyd\The Early Years 1965-1972\1965-1967 Cambridge St-ation\CD01\09 Apples And Oranges.wav

Peak level 84.8 %
Extraction speed 1.4 X
Track quality 99.9 %
Test CRC B8D00477
Copy CRC B8D00477
Track not present in AccurateRip database
Copy OK

Track 10

Filename E:\Rips\Pink Floyd\The Early Years 1965-1972\1965-1967 Cambridge St-ation\CD01\10 Candy And A Currant Bun.wav

Peak level 81.1 %
Extraction speed 1.7 X
Track quality 100.0 %
Test CRC F3C01E9D
Copy CRC F3C01E9D
Track not present in AccurateRip database
Copy OK

Track 11

Filename E:\Rips\Pink Floyd\The Early Years 1965-1972\1965-1967 Cambridge St-ation\CD01\11 Paintbox.wav

Peak level 89.1 %
Extraction speed 1.6 X
Track quality 99.9 %
Test CRC 096F7A69
Copy CRC 096F7A69
Track not present in AccurateRip database
Copy OK

Track 12

Filename E:\Rips\Pink Floyd\The Early Years 1965-1972\1965-1967 Cambridge St-ation\CD01\12 Matilda Mother (2010 mix).wav

Peak level 77.6 %
Extraction speed 1.9 X
Track quality 100.0 %
Test CRC 3130EE98
Copy CRC 3130EE98
Track not present in AccurateRip database
Copy OK

Track 13

Filename E:\Rips\Pink Floyd\The Early Years 1965-1972\1965-1967 Cambridge St-ation\CD01\13 Jugband Blues (2010 mix).wav

Peak level 91.9 %
Extraction speed 1.6 X
Track quality 99.9 %
Test CRC 59C08DBF
Copy CRC 59C08DBF
Track not present in AccurateRip database
Copy OK

Track 14

Filename E:\Rips\Pink Floyd\The Early Years 1965-1972\1965-1967 Cambridge St-ation\CD01\14 In The Beechwoods (2010 mix).wav

Peak level 91.6 %
Extraction speed 2.1 X
Track quality 100.0 %
Test CRC 2CD9A54C
Copy CRC 2CD9A54C
Track not present in AccurateRip database
Copy OK

Track 15

Filename E:\Rips\Pink Floyd\The Early Years 1965-1972\1965-1967 Cambridge St-ation\CD01\15 Vegetable Man (2010 mix).wav

Pre-gap length 0:00:02.44

Peak level 85.8 %
Extraction speed 1.6 X
Track quality 99.9 %
Test CRC E32701B3
Copy CRC E32701B3
Track not present in AccurateRip database
Copy OK

Track 16

Filename E:\Rips\Pink Floyd\The Early Years 1965-1972\1965-1967 Cambridge St-ation\CD01\16 Scream Thy Last Scream (2010 mix).wav

Pre-gap length 0:00:02.14

Peak level 100.0 %
Extraction speed 2.0 X
Track quality 99.9 %
Test CRC 0285CE7B
Copy CRC 0285CE7B
Track not present in AccurateRip database
Copy OK

None of the tracks are present in the AccurateRip database

No errors occurred

End of status report

—- CUETools DB Plugin V2.1.4

[CTDB TOCID: WuCX1yPoPU82J_Lf_6NcdMz4Gl4-] found
Submit result: WuCX1yPoPU82J_Lf_6NcdMz4Gl4- has been confirmed
Track | CTDB Status
1 | (1/1) Accurately ripped
2 | (1/1) Accurately ripped
3 | (1/1) Accurately ripped
4 | (1/1) Accurately ripped
5 | (1/1) Accurately ripped
6 | (1/1) Accurately ripped
7 | (1/1) Accurately ripped
8 | (1/1) Accurately ripped
9 | (1/1) Accurately ripped
10 | (1/1) Accurately ripped
11 | (1/1) Accurately ripped
12 | (1/1) Accurately ripped
13 | (1/1) Accurately ripped
14 | (1/1) Accurately ripped
15 | (1/1) Accurately ripped
16 | (1/1) Accurately ripped

==== Log checksum 944928D669D6E4DFD731A99B7272007BEFD7C628EC0BFCD600C86A2019A04E7F ====

REM GENRE “Psychedelic Rock”
REM DATE 2016
REM DISCID D00C5010
REM COMMENT “ExactAudioCopy v1.0b3”
CATALOG 0190295929855
PERFORMER “Pink Floyd”
TITLE “1965-1967 Cambridge St/ation CD1”
FILE “01 Lucy leave.wav” WAVE
TRACK 01 AUDIO
TITLE “Lucy leave”
PERFORMER “Pink Floyd”
ISRC GBN9Y1500021
INDEX 01 00:00:00
FILE “02 Double O Bo.wav” WAVE
TRACK 02 AUDIO
TITLE “Double O Bo”
PERFORMER “Pink Floyd”
ISRC GBN9Y1500022
INDEX 01 00:00:00
FILE “03 Remember Me.wav” WAVE
TRACK 03 AUDIO
TITLE “Remember Me”
PERFORMER “Pink Floyd”
ISRC GBN9Y1500023
INDEX 01 00:00:00
FILE “04 Walk With Me Sydney.wav” WAVE
TRACK 04 AUDIO
TITLE “Walk With Me Sydney”
PERFORMER “Pink Floyd”
ISRC GBN9Y1500024
INDEX 01 00:00:00
FILE “05 Butterfly.wav” WAVE
TRACK 05 AUDIO
TITLE “Butterfly”
PERFORMER “Pink Floyd”
ISRC GBN9Y1500025
INDEX 01 00:00:00
FILE “06 I’m A King Bee.wav” WAVE
TRACK 06 AUDIO
TITLE “I’m A King Bee”
PERFORMER “Pink Floyd”
ISRC GBN9Y1500026
INDEX 01 00:00:00
FILE “07 Arnold Layne.wav” WAVE
TRACK 07 AUDIO
TITLE “Arnold Layne”
PERFORMER “Pink Floyd”
ISRC GBN9Y1600040
INDEX 01 00:00:00
FILE “08 See Emily Play.wav” WAVE
TRACK 08 AUDIO
TITLE “See Emily Play”
PERFORMER “Pink Floyd”
ISRC GBN9Y1600041
INDEX 01 00:00:00
FILE “09 Apples And Oranges.wav” WAVE
TRACK 09 AUDIO
TITLE “Apples And Oranges”
PERFORMER “Pink Floyd”
ISRC GBN9Y1600042
INDEX 01 00:00:00
FILE “10 Candy And A Currant Bun.wav” WAVE
TRACK 10 AUDIO
TITLE “Candy And A Currant Bun”
PERFORMER “Pink Floyd”
ISRC GBN9Y1600043
INDEX 01 00:00:00
FILE “11 Paintbox.wav” WAVE
TRACK 11 AUDIO
TITLE “Paintbox”
PERFORMER “Pink Floyd”
ISRC GBN9Y1600044
INDEX 01 00:00:00
FILE “12 Matilda Mother (2010 mix).wav” WAVE
TRACK 12 AUDIO
TITLE “Matilda Mother (2010 mix)”
PERFORMER “Pink Floyd”
ISRC GBN9Y1600045
INDEX 01 00:00:00
FILE “13 Jugband Blues (2010 mix).wav” WAVE
TRACK 13 AUDIO
TITLE “Jugband Blues (2010 mix)”
PERFORMER “Pink Floyd”
ISRC GBN9Y1600046
INDEX 01 00:00:00
FILE “14 In The Beechwoods (2010 mix).wav” WAVE
TRACK 14 AUDIO
TITLE “In The Beechwoods (2010 mix)”
PERFORMER “Pink Floyd”
ISRC GBN9Y1600047
INDEX 01 00:00:00
TRACK 15 AUDIO
TITLE “Vegetable Man (2010 mix)”
PERFORMER “Pink Floyd”
ISRC GBN9Y1600048
INDEX 00 04:40:66
FILE “15 Vegetable Man (2010 mix).wav” WAVE
INDEX 01 00:00:00
TRACK 16 AUDIO
TITLE “Scream Thy Last Scream (2010 mix)”
PERFORMER “Pink Floyd”
ISRC GBN9Y1600049
INDEX 00 02:29:41
FILE “16 Scream Thy Last Scream (2010 mix).wav” WAVE
INDEX 01 00:00:00

Leave a Reply

Your email address will not be published. Required fields are marked *

Enter the text from the image below
 

This site uses Akismet to reduce spam. Learn how your comment data is processed.