Pink Floyd – The Division Bell (Limited Remastered Japanese Edition)




No Cover available

Artist: Pink Floyd
Year: 1994/2011
Genre: Rock
Notes: Discogs
Add. Notes: Limited Remastered Japanese Edition
Watch Songs on: YouTube
Cover incl.: Yes
Encoder: FLAC
Bitrate: ~900 kBit/s (44.1 kHz/16 Bit/s)
Log & Cue incl.: Yes/Yes
Size: 493 MB
Password: “slam” (without ” “)


All Downloads/Hosters are compatible

Download 1
KatFile.com
Turbobit.net
FileFactory.com
Rapidgator.net
Download 2
KatFile.com
Turbobit.net
FileFactory.com
Rapidgator.net

Tracklist:

1 - Cluster One - 5:58
2 - What Do You Want From Me - 
4:21
3 - Poles Apart - 7:04
4 - Marooned - 5:28
5 - A Great Day For Freedom - 4:18
6 - Wearing The Inside Out - 6:48
7 - Take It Back - 6:12
8 - Coming Back To Life - 6:19
9 - Keep Talking - 6:11
10 - Lost For Words - 5:14
11 - High Hopes - 7:58

EAC-Log, CUE-Sheed & NFO:

Click to open spoiler
Exact Audio Copy V0.99 prebeta 5 from 4. May 2009

EAC extraction logfile from 3. October 2011, 10:51

Pink Floyd / The Division Bell

Used drive : SONY CDRW/DVD CRX835E Adapter: 4 ID: 0

Read mode : Secure
Utilize accurate stream : Yes
Defeat audio cache : Yes
Make use of C2 pointers : No

Read offset correction : 6
Overread into Lead-In and Lead-Out : No
Fill up missing offset samples with silence : Yes
Delete leading and trailing silent blocks : No
Null samples used in CRC calculations : Yes
Used interface : Native Win32 interface for Win NT & 2000
Gap handling : Appended to previous track

Used output format : User Defined Encoder
Selected bitrate : 1024 kBit/s
Quality : High
Add ID3 tag : No
Command line compressor : C:\Program Files (x86)\Exact Audio Copy\Flac\flac.exe
Additional command line options : -8 -V -T “ARTIST=%a” -T “TITLE=%t” -T “ALBUM=%g” -T “DATE=%y” -T “TRACKNUMBER=%n” -T “TOTALTRACKS=%x” -T “GENRE=%m” -T “ALBUM ARTIST=%v” -T “ALBUMARTIST=%v” -T “COMMENT=EAC V0.99 prebeta 5, Secure Mode, Test & Copy, Accurat

TOC of the extracted CD

Track | Start | Length | Start sector | End sector
———————————————————
1 | 0:00.00 | 5:56.57 | 0 | 26756
2 | 5:56.57 | 4:21.45 | 26757 | 46376
3 | 10:18.27 | 7:03.52 | 46377 | 78153
4 | 17:22.04 | 5:29.54 | 78154 | 102882
5 | 22:51.58 | 4:17.17 | 102883 | 122174
6 | 27:09.00 | 6:49.01 | 122175 | 152850
7 | 33:58.01 | 6:12.24 | 152851 | 180774
8 | 40:10.25 | 6:19.11 | 180775 | 209210
9 | 46:29.36 | 6:10.50 | 209211 | 237010
10 | 52:40.11 | 5:13.13 | 237011 | 260498
11 | 57:53.24 | 8:34.23 | 260499 | 299071

Track 1

Filename C:\Losslessworld.info\Pink Floyd – The Discovery Studio Album Box Set (2011) [FLAC] { Japan, Remastered, 16 CDs, EMI, TOCP-71147-62 }\Pink Floyd – The Division Bell (1994) [FLAC] { TOCP-71146 }\01 – Cluster One.wav

Pre-gap length 0:00:02.00

Peak level 68.7 %
Track quality 100.0 %
Test CRC C818CF68
Copy CRC C818CF68
Copy OK

Track 2

Filename C:\Losslessworld.info\Pink Floyd – The Discovery Studio Album Box Set (2011) [FLAC] { Japan, Remastered, 16 CDs, EMI, TOCP-71147-62 }\Pink Floyd – The Division Bell (1994) [FLAC] { TOCP-71146 }\02 – What Do You Want From Me.wav

Peak level 85.6 %
Track quality 100.0 %
Test CRC 25AB4ACA
Copy CRC 25AB4ACA
Copy OK

Track 3

Filename C:\Losslessworld.info\Pink Floyd – The Discovery Studio Album Box Set (2011) [FLAC] { Japan, Remastered, 16 CDs, EMI, TOCP-71147-62 }\Pink Floyd – The Division Bell (1994) [FLAC] { TOCP-71146 }\03 – Poles Apart.wav

Peak level 86.2 %
Track quality 99.9 %
Test CRC 424655D4
Copy CRC 424655D4
Copy OK

Track 4

Filename C:\Losslessworld.info\Pink Floyd – The Discovery Studio Album Box Set (2011) [FLAC] { Japan, Remastered, 16 CDs, EMI, TOCP-71147-62 }\Pink Floyd – The Division Bell (1994) [FLAC] { TOCP-71146 }\04 – Marooned.wav

Peak level 82.3 %
Track quality 99.9 %
Test CRC 734F215C
Copy CRC 734F215C
Copy OK

Track 5

Filename C:\Losslessworld.info\Pink Floyd – The Discovery Studio Album Box Set (2011) [FLAC] { Japan, Remastered, 16 CDs, EMI, TOCP-71147-62 }\Pink Floyd – The Division Bell (1994) [FLAC] { TOCP-71146 }\05 – A Great Day For Freedom.wav

Peak level 84.3 %
Track quality 100.0 %
Test CRC 9580A8D0
Copy CRC 9580A8D0
Copy OK

Track 6

Filename C:\Losslessworld.info\Pink Floyd – The Discovery Studio Album Box Set (2011) [FLAC] { Japan, Remastered, 16 CDs, EMI, TOCP-71147-62 }\Pink Floyd – The Division Bell (1994) [FLAC] { TOCP-71146 }\06 – Wearing The Inside Out.wav

Peak level 70.6 %
Track quality 100.0 %
Test CRC 24BE9DD1
Copy CRC 24BE9DD1
Copy OK

Track 7

Filename C:\Losslessworld.info\Pink Floyd – The Discovery Studio Album Box Set (2011) [FLAC] { Japan, Remastered, 16 CDs, EMI, TOCP-71147-62 }\Pink Floyd – The Division Bell (1994) [FLAC] { TOCP-71146 }\07 – Take It Back.wav

Peak level 86.7 %
Track quality 100.0 %
Test CRC 7958687C
Copy CRC 7958687C
Copy OK

Track 8

Filename C:\Losslessworld.info\Pink Floyd – The Discovery Studio Album Box Set (2011) [FLAC] { Japan, Remastered, 16 CDs, EMI, TOCP-71147-62 }\Pink Floyd – The Division Bell (1994) [FLAC] { TOCP-71146 }\08 – Coming Back To Life.wav

Peak level 86.1 %
Track quality 100.0 %
Test CRC 4AF6D9BD
Copy CRC 4AF6D9BD
Copy OK

Track 9

Filename C:\Losslessworld.info\Pink Floyd – The Discovery Studio Album Box Set (2011) [FLAC] { Japan, Remastered, 16 CDs, EMI, TOCP-71147-62 }\Pink Floyd – The Division Bell (1994) [FLAC] { TOCP-71146 }\09 – Keep Talking.wav

Peak level 86.8 %
Track quality 100.0 %
Test CRC 3C55BE9F
Copy CRC 3C55BE9F
Copy OK

Track 10

Filename C:\Losslessworld.info\Pink Floyd – The Discovery Studio Album Box Set (2011) [FLAC] { Japan, Remastered, 16 CDs, EMI, TOCP-71147-62 }\Pink Floyd – The Division Bell (1994) [FLAC] { TOCP-71146 }\10 – Lost For Words.wav

Peak level 84.2 %
Track quality 100.0 %
Test CRC 9AD9528E
Copy CRC 9AD9528E
Copy OK

Track 11

Filename C:\Losslessworld.info\Pink Floyd – The Discovery Studio Album Box Set (2011) [FLAC] { Japan, Remastered, 16 CDs, EMI, TOCP-71147-62 }\Pink Floyd – The Division Bell (1994) [FLAC] { TOCP-71146 }\11 – High Hopes.wav

Peak level 86.1 %
Track quality 100.0 %
Test CRC 444BD4FB
Copy CRC 444BD4FB
Copy OK

No errors occurred

End of status report

REM GENRE “Progressive Rock”
REM DATE 1994
REM DISCID 7D0F930B
REM COMMENT “ExactAudioCopy v0.99pb5”
PERFORMER “Pink Floyd”
TITLE “The Division Bell”
FILE “01 – Cluster One.wav” WAVE
TRACK 01 AUDIO
TITLE “Cluster One”
PERFORMER “Pink Floyd”
INDEX 01 00:00:00
FILE “02 – What Do You Want From Me.wav” WAVE
TRACK 02 AUDIO
TITLE “What Do You Want From Me”
PERFORMER “Pink Floyd”
INDEX 01 00:00:00
FILE “03 – Poles Apart.wav” WAVE
TRACK 03 AUDIO
TITLE “Poles Apart”
PERFORMER “Pink Floyd”
INDEX 01 00:00:00
FILE “04 – Marooned.wav” WAVE
TRACK 04 AUDIO
TITLE “Marooned”
PERFORMER “Pink Floyd”
INDEX 01 00:00:00
FILE “05 – A Great Day For Freedom.wav” WAVE
TRACK 05 AUDIO
TITLE “A Great Day For Freedom”
PERFORMER “Pink Floyd”
INDEX 01 00:00:00
FILE “06 – Wearing The Inside Out.wav” WAVE
TRACK 06 AUDIO
TITLE “Wearing The Inside Out”
PERFORMER “Pink Floyd”
INDEX 01 00:00:00
FILE “07 – Take It Back.wav” WAVE
TRACK 07 AUDIO
TITLE “Take It Back”
PERFORMER “Pink Floyd”
INDEX 01 00:00:00
FILE “08 – Coming Back To Life.wav” WAVE
TRACK 08 AUDIO
TITLE “Coming Back To Life”
PERFORMER “Pink Floyd”
INDEX 01 00:00:00
FILE “09 – Keep Talking.wav” WAVE
TRACK 09 AUDIO
TITLE “Keep Talking”
PERFORMER “Pink Floyd”
INDEX 01 00:00:00
FILE “10 – Lost For Words.wav” WAVE
TRACK 10 AUDIO
TITLE “Lost For Words”
PERFORMER “Pink Floyd”
INDEX 01 00:00:00
FILE “11 – High Hopes.wav” WAVE
TRACK 11 AUDIO
TITLE “High Hopes”
PERFORMER “Pink Floyd”
INDEX 01 00:00:00


Leave a Reply

Your email address will not be published. Required fields are marked *

Enter the text from the image below
 

This site uses Akismet to reduce spam. Learn how your comment data is processed.