Pink Floyd – The Dark Side Of The Moon, The High Resolution Remasters (Deluxe Edition)




No Cover available

Artist: Pink Floyd
Year: 2018
Genre: Rock
Notes: Discogs
Add. Notes: Deluxe Edition
Watch Songs on: YouTube
Cover incl.: Yes
Encoder: FLAC
Bitrate: ~800 kBit/s (44.1 kHz/16 Bit/s)
Log & Cue incl.: Yes
Size: 1683,6 MB
Password: “slam” (without ” “)


All Downloads/Hosters are compatible

Download 1
KatFile.com
Turbobit.net
FileFactory.com
Rapidgator.net
Download 2
KatFile.com
Turbobit.net
FileFactory.com
Rapidgator.net

Tracklist:

Rarities & Alternate Versions
1-1 Speak To Me/Breathe In The Air - Us Promo EP 
1-2 On The Run - Live Version 
1-3 Time - Pre Production Version 
1-4 Time - Stereo Single Edit 
1-5 The Great Gig In The Sky - Live Version 
1-6 Money - Stereo Single Edit 
1-7 Money - Us Promo Single Soft Stereo 
1-8 Money - Dance Song Album Version (1981 Re-
recording) 
1-9 Us And Them - Demo 
1-10 Us And Them - Us Promo Ep Stereo 
1-11 Us And Them - Live Version 
1-12 Any Colour You Like - Live Version 
1-13 Any Colour You Like - Stereo Single B-Side 
1-14 Brain Damage/Eclipse - Demo 
1-15 Brain Damage - Live Version 
1-16 Eclipse - Live Version 
1-17 Eclipse - Mysterious Music At Ending 

Isolations
2-1 Speak To Me - Quad Version 
2-2 Breathe In The Air - Rhythm & Pedal Steel Guitar 
2-3 Breathe In The Air - Backing Track With Vocals 
2-4 On The Run - Effects 
2-5 Time/Breathe Reprise - Drums, Rhythm Guitar, 
Backing Vocals & Organ 
2-6 Time/Breathe Reprise - Drums, Keyboard, Rhythm 
Guitar & Backing Vocals 
2-7 Time/Breathe Reprise - Drums, Vocal, Guitars, 
Keyboards & Backing Vocals 
2-8 The Great Gig In The Sky - Piano, Pedal Steel Guitar, 
Drums & Vocals 
2-9 Money - Rhythm & Lead Guitar 
2-10 Money - Bass, Drums, Guitars, Lead Vovals & Sax 
2-11 Money - Rhythm & Lead Guitars + Keyboards 
2-12 Us And Them - Drums, Bass, Guitar, Keyboards, 
Vocals & Sax 
2-13 Us And Them - Drums, Rhythm Guitar, Organ & 
Vocals 
2-14 Any Colour You Like - Moog & Guitars 
2-15 Brain Damage - Basic Track With Corus 
2-16 Spoken Words & Sound Effects 

High Resolution Remaster & Bonus Material
3-1 Speak To Me/Breathe In The Air 
3-2 On The Run 
3-3 Time/Breathe Reprise 
3-4 The Great Gig In The Sky 
3-5 Money 
3-6 Us And Them 
3-7 Any Colour You Like 
3-8 Brain Damage 
3-9 Eclipse 
3-10 Red Beard 1988 Dark Side Of The Moon Radio 
Special 
3-11 Roger The Hat Interview 
3-12 Eclipse - Isolated Backing Track 

Live At Wembley - From Pre-FM Master Tape
4-1 Speak To Me/Breathe In The Air 
4-2 On The Run 
4-3 Time/Breathe Reprise 
4-4 The Great Gig In The Sky 
4-5 Money 
4-6 Us And Them 
4-7 Any Colour You Like 
4-8 Brain Damage 
4-9 Eclipse 
4-10 Echoes

EAC-Log, CUE-Sheed & NFO:

Click to open spoiler
Exact Audio Copy V1.0 beta 3 from 29. August 2011

EAC extraction logfile from 25. February 2019, 15:46

Pink Floyd / TDSOTM Disc 1

Used drive : TSSTcorpCDDVDW SH-S223Q Adapter: 1 ID: 0

Read mode : Secure
Utilize accurate stream : Yes
Defeat audio cache : Yes
Make use of C2 pointers : No

Read offset correction : 6
Overread into Lead-In and Lead-Out : No
Fill up missing offset samples with silence : Yes
Delete leading and trailing silent blocks : No
Null samples used in CRC calculations : Yes
Used interface : Native Win32 interface for Win NT & 2000
Gap handling : Appended to previous track

Used output format : User Defined Encoder
Selected bitrate : 1024 kBit/s
Quality : Low
Add ID3 tag : No
Command line compressor : C:\Program Files\Exact Audio Copy\FLAC\FLAC.EXE
Additional command line options : -8 -V -T “ARTIST=%artist%” -T “TITLE=%title%” -T “ALBUM=%albumtitle%” -T “DATE=%year%” -T “TRACKNUMBER=%tracknr%” -T “GENRE=%genre%” -T “COMMENT=%comment%” -T “BAND=%albuminterpret%” -T “ALBUMARTIST=%albuminterpret%” -T “COMPOSER=%composer%” %haslyrics%–tag-from-file=LYRICS=”%lyricsfile%”%haslyrics% -T “DISCNUMBER=%cdnumber%” -T “TOTALDISCS=%totalcds%” -T “TOTALTRACKS=%numtracks%” %hascover%–picture=”%coverfile%”%hascover% %source% -o %dest%

TOC of the extracted CD

Track | Start | Length | Start sector | End sector
———————————————————
1 | 0:00.00 | 3:43.44 | 0 | 16768
2 | 3:43.44 | 5:09.65 | 16769 | 40008
3 | 8:53.34 | 6:10.13 | 40009 | 67771
4 | 15:03.47 | 3:25.44 | 67772 | 83190
5 | 18:29.16 | 6:47.74 | 83191 | 113789
6 | 25:17.15 | 4:01.59 | 113790 | 131923
7 | 29:18.74 | 4:03.74 | 131924 | 150222
8 | 33:22.73 | 6:51.23 | 150223 | 181070
9 | 40:14.21 | 5:31.14 | 181071 | 205909
10 | 45:45.35 | 3:20.14 | 205910 | 220923
11 | 49:05.49 | 7:53.64 | 220924 | 256462
12 | 56:59.38 | 7:38.65 | 256463 | 290877
13 | 64:38.28 | 3:14.66 | 290878 | 305493
14 | 67:53.19 | 3:29.06 | 305494 | 321174
15 | 71:22.25 | 3:45.23 | 321175 | 338072
16 | 75:07.48 | 1:42.06 | 338073 | 345728
17 | 76:49.54 | 0:35.74 | 345729 | 348427

Track 1

Filename C:\z\Pink Floyd – Dark Side Of The Moon – Hi-Res Remasters (2018) FLAC\CD1 – Rarities + Alternate Versions\01 Speak To Me . Breathe In The Air (US Promo EP).wav

Pre-gap length 0:00:02.00

Peak level 100.0 %
Extraction speed 4.9 X
Track quality 100.0 %
Test CRC 2225CE2A
Copy CRC 2225CE2A
Track not present in AccurateRip database
Copy OK

Track 2

Filename C:\z\Pink Floyd – Dark Side Of The Moon – Hi-Res Remasters (2018) FLAC\CD1 – Rarities + Alternate Versions\02 On The Run (Live).wav

Peak level 98.0 %
Extraction speed 5.5 X
Track quality 100.0 %
Test CRC 10A92952
Copy CRC 10A92952
Track not present in AccurateRip database
Copy OK

Track 3

Filename C:\z\Pink Floyd – Dark Side Of The Moon – Hi-Res Remasters (2018) FLAC\CD1 – Rarities + Alternate Versions\03 Time (Pre-Production).wav

Peak level 98.0 %
Extraction speed 5.3 X
Track quality 99.9 %
Test CRC 313C2A92
Copy CRC 313C2A92
Track not present in AccurateRip database
Copy OK

Track 4

Filename C:\z\Pink Floyd – Dark Side Of The Moon – Hi-Res Remasters (2018) FLAC\CD1 – Rarities + Alternate Versions\04 Time (Stereo Single Edit).wav

Peak level 97.9 %
Extraction speed 6.2 X
Track quality 100.0 %
Test CRC B60B6F6B
Copy CRC B60B6F6B
Track not present in AccurateRip database
Copy OK

Track 5

Filename C:\z\Pink Floyd – Dark Side Of The Moon – Hi-Res Remasters (2018) FLAC\CD1 – Rarities + Alternate Versions\05 The Great Gig In The Sky (Live).wav

Peak level 97.9 %
Extraction speed 6.2 X
Track quality 99.9 %
Test CRC 0C01D621
Copy CRC 0C01D621
Track not present in AccurateRip database
Copy OK

Track 6

Filename C:\z\Pink Floyd – Dark Side Of The Moon – Hi-Res Remasters (2018) FLAC\CD1 – Rarities + Alternate Versions\06 Money (Stereo Single Edit).wav

Peak level 98.2 %
Extraction speed 7.1 X
Track quality 100.0 %
Test CRC 4DB99037
Copy CRC 4DB99037
Track not present in AccurateRip database
Copy OK

Track 7

Filename C:\z\Pink Floyd – Dark Side Of The Moon – Hi-Res Remasters (2018) FLAC\CD1 – Rarities + Alternate Versions\07 Money (US Promo Single Soft Stereo).wav

Peak level 98.0 %
Extraction speed 5.9 X
Track quality 99.9 %
Test CRC 78104E7F
Copy CRC 78104E7F
Track not present in AccurateRip database
Copy OK

Track 8

Filename C:\z\Pink Floyd – Dark Side Of The Moon – Hi-Res Remasters (2018) FLAC\CD1 – Rarities + Alternate Versions\08 Money (Dance Songs Version, 1981 Re-Recording).wav

Peak level 98.0 %
Extraction speed 8.2 X
Track quality 100.0 %
Test CRC 6E2098CD
Copy CRC 6E2098CD
Track not present in AccurateRip database
Copy OK

Track 9

Filename C:\z\Pink Floyd – Dark Side Of The Moon – Hi-Res Remasters (2018) FLAC\CD1 – Rarities + Alternate Versions\09 Us & Them (Demo).wav

Peak level 89.2 %
Extraction speed 8.4 X
Track quality 100.0 %
Test CRC EC10BD3C
Copy CRC EC10BD3C
Track not present in AccurateRip database
Copy OK

Track 10

Filename C:\z\Pink Floyd – Dark Side Of The Moon – Hi-Res Remasters (2018) FLAC\CD1 – Rarities + Alternate Versions\10 Us & Them (US Promo EP Stereo).wav

Peak level 98.0 %
Extraction speed 6.2 X
Track quality 99.9 %
Test CRC 9D20FB7B
Copy CRC 9D20FB7B
Track not present in AccurateRip database
Copy OK

Track 11

Filename C:\z\Pink Floyd – Dark Side Of The Moon – Hi-Res Remasters (2018) FLAC\CD1 – Rarities + Alternate Versions\11 Us & Them (Live).wav

Peak level 97.9 %
Extraction speed 9.3 X
Track quality 100.0 %
Test CRC EC515476
Copy CRC EC515476
Track not present in AccurateRip database
Copy OK

Track 12

Filename C:\z\Pink Floyd – Dark Side Of The Moon – Hi-Res Remasters (2018) FLAC\CD1 – Rarities + Alternate Versions\12 Any Colour You Like (Live).wav

Peak level 97.9 %
Extraction speed 9.7 X
Track quality 100.0 %
Test CRC A8FCC50B
Copy CRC A8FCC50B
Track not present in AccurateRip database
Copy OK

Track 13

Filename C:\z\Pink Floyd – Dark Side Of The Moon – Hi-Res Remasters (2018) FLAC\CD1 – Rarities + Alternate Versions\13 Any Colour You Like (Stereo Single B-Side).wav

Peak level 98.0 %
Extraction speed 6.8 X
Track quality 99.9 %
Test CRC ED33CADC
Copy CRC ED33CADC
Track not present in AccurateRip database
Copy OK

Track 14

Filename C:\z\Pink Floyd – Dark Side Of The Moon – Hi-Res Remasters (2018) FLAC\CD1 – Rarities + Alternate Versions\14 Brain Damage . Eclipse (Demo).wav

Peak level 97.9 %
Extraction speed 9.3 X
Track quality 100.0 %
Test CRC E3A04116
Copy CRC E3A04116
Track not present in AccurateRip database
Copy OK

Track 15

Filename C:\z\Pink Floyd – Dark Side Of The Moon – Hi-Res Remasters (2018) FLAC\CD1 – Rarities + Alternate Versions\15 Brain Damage (Live).wav

Peak level 97.8 %
Extraction speed 9.6 X
Track quality 100.0 %
Test CRC DE3243EA
Copy CRC DE3243EA
Track not present in AccurateRip database
Copy OK

Track 16

Filename C:\z\Pink Floyd – Dark Side Of The Moon – Hi-Res Remasters (2018) FLAC\CD1 – Rarities + Alternate Versions\16 Eclipse (Live).wav

Peak level 97.9 %
Extraction speed 8.2 X
Track quality 100.0 %
Test CRC 472113FA
Copy CRC 472113FA
Track not present in AccurateRip database
Copy OK

Track 17

Filename C:\z\Pink Floyd – Dark Side Of The Moon – Hi-Res Remasters (2018) FLAC\CD1 – Rarities + Alternate Versions\17 Eclipse (Mysterious Music At Ending).wav

Peak level 97.8 %
Extraction speed 5.5 X
Track quality 100.0 %
Test CRC 3A90470E
Copy CRC 3A90470E
Track not present in AccurateRip database
Copy OK

None of the tracks are present in the AccurateRip database

No errors occurred

End of status report

==== Log checksum B1C919FFFCBBE71807026E95D3CBF395FDC0A384405F68A6C5E37039DAF31F86 ====

REM DISCID DB12BD10
REM COMMENT “ExactAudioCopy v1.0b3”
PERFORMER “Pink Floyd”
TITLE “TDSOTM Disc 2”
FILE “01 Speak To Me (Quad Version).wav” WAVE
TRACK 01 AUDIO
TITLE “Speak To Me (Quad Version)”
PERFORMER “0201 Speak To Me (Quad Version”
ISRC 000000000000
INDEX 01 00:00:00
FILE “02 Breathe In The Air (Rhythm & Pedal Steel Guitar).wav” WAVE
TRACK 02 AUDIO
TITLE “Breathe In The Air (Rhythm & Pedal Steel Guitar)”
PERFORMER “0202 Breathe In The Air (Rhythm & Pedal Steel Guitar”
ISRC 000000000000
INDEX 01 00:00:00
FILE “03 Breathe In The Air (Backing Track With Vocals).wav” WAVE
TRACK 03 AUDIO
TITLE “Breathe In The Air (Backing Track With Vocals)”
PERFORMER “0203 Breathe In The Air (Backing Track With Vocals”
ISRC 000000000000
INDEX 01 00:00:00
FILE “04 On The Run (Effects).wav” WAVE
TRACK 04 AUDIO
TITLE “On The Run (Effects)”
PERFORMER “0204 On The Run (Effects”
ISRC 000000000000
INDEX 01 00:00:00
FILE “05 Time Breathe Reprise (Drums, Rhythm Git, Back Vocals, Organ).wav” WAVE
TRACK 05 AUDIO
TITLE “Time Breathe Reprise (Drums, Rhythm Git, Back Vocals, Organ)”
PERFORMER “0205 Time . Breathe Reprise (Drum Intro, Rhythm Guitar, Backing Vocals, Organ”
ISRC 000000000000
INDEX 01 00:00:00
FILE “06 Time Breathe Reprise (Drums, Keys, Rhythm Guitar, Back Vocals).wav” WAVE
TRACK 06 AUDIO
TITLE “Time Breathe Reprise (Drums, Keys, Rhythm Guitar, Back Vocals)”
PERFORMER “0206 Time . Breathe Reprise (Drum Intro, Keyboards, Rhythm Guitar, Backing Vo…”
ISRC 000000000000
INDEX 01 00:00:00
FILE “07 Time Breathe Reprise (Drums, Keys, Lead+Back Vocal, Lead Guitar).wav” WAVE
TRACK 07 AUDIO
TITLE “Time Breathe Reprise (Drums, Keys, Lead+Back Vocal, Lead Guitar)”
PERFORMER “0207 Time . Breathe Reprise (Drums, Vocal, Keyboards, Backing Vocals, Lead Gu…”
ISRC 000000000000
INDEX 01 00:00:00
FILE “08 The Great Gig In The Sky (Piano, Pedal Steel Guitar, Drums, Voc).wav” WAVE
TRACK 08 AUDIO
TITLE “The Great Gig In The Sky (Piano, Pedal Steel Guitar, Drums, Voc)”
PERFORMER “0208 The Great Gig In The Sky (Piano, Pedal Steel Guitar, Drums, Vocals”
ISRC 000000000000
INDEX 01 00:00:00
FILE “09 Money (Rhythm & Lead Guitars).wav” WAVE
TRACK 09 AUDIO
TITLE “Money (Rhythm & Lead Guitars)”
PERFORMER “0209 Money (Rhythm & Lead Guitars”
ISRC 000000000000
INDEX 01 00:00:00
FILE “10 Money (Bass, Drums, Guitars, Lead Vocals, Sax).wav” WAVE
TRACK 10 AUDIO
TITLE “Money (Bass, Drums, Guitars, Lead Vocals, Sax)”
PERFORMER “0210 Money (Bass, Drums, Guitars, Lead Vocals, Sax”
ISRC 000000000000
INDEX 01 00:00:00
FILE “11 Money (Rhythm & Lead Guitars, Keyboards).wav” WAVE
TRACK 11 AUDIO
TITLE “Money (Rhythm & Lead Guitars, Keyboards)”
PERFORMER “0211 Money (Rhythm & Lead Guitars, Keyboards”
ISRC 000000000000
INDEX 01 00:00:00
FILE “12 Us & Them (Drums, Sax).wav” WAVE
TRACK 12 AUDIO
TITLE “Us & Them (Drums, Sax)”
PERFORMER “0212 Us & Them (Drums, Sax”
ISRC 000000000000
INDEX 01 00:00:00
FILE “13 Us & Them (Drums, Rhythm Guitars, Organ, Vocals).wav” WAVE
TRACK 13 AUDIO
TITLE “Us & Them (Drums, Rhythm Guitars, Organ, Vocals)”
PERFORMER “0213 Us & Them (Drums, Rhythm Guitars, Organ, Vocals”
ISRC 000000000000
INDEX 01 00:00:00
FILE “14 Any Colour You Like (Moog, Guitars).wav” WAVE
TRACK 14 AUDIO
TITLE “Any Colour You Like (Moog, Guitars)”
PERFORMER “0214 Any Colour You Like (Moog, Guitars”
ISRC 000000000000
INDEX 01 00:00:00
FILE “15 Brain Damage (Basic Track With Chorus).wav” WAVE
TRACK 15 AUDIO
TITLE “Brain Damage (Basic Track With Chorus)”
PERFORMER “0215 Brain Damage (Basic Track With Chorus”
ISRC 000000000000
INDEX 01 00:00:00
FILE “16 Spoken Words & Sound Effects.wav” WAVE
TRACK 16 AUDIO
TITLE “Spoken Words & Sound Effects”
PERFORMER “0216 ”
ISRC 000000000000
INDEX 01 00:00:00

REM DISCID A111C90C
REM COMMENT “ExactAudioCopy v1.0b3”
PERFORMER “Pink Floyd”
TITLE “TDSOTM Disc 3”
FILE “01 Speak To Me , Breathe In The Air.wav” WAVE
TRACK 01 AUDIO
TITLE “Speak To Me / Breathe In The Air”
PERFORMER “Pink Floyd”
ISRC 000000000000
INDEX 01 00:00:00
FILE “02 On The Run.wav” WAVE
TRACK 02 AUDIO
TITLE “On The Run”
PERFORMER “Pink Floyd”
ISRC 000000000000
INDEX 01 00:00:00
FILE “03 Time.wav” WAVE
TRACK 03 AUDIO
TITLE “Time”
PERFORMER “Pink Floyd”
ISRC 000000000000
INDEX 01 00:00:00
FILE “04 The Great Gig In The Sky.wav” WAVE
TRACK 04 AUDIO
TITLE “The Great Gig In The Sky”
PERFORMER “Pink Floyd”
ISRC 000000000000
INDEX 01 00:00:00
FILE “05 Money.wav” WAVE
TRACK 05 AUDIO
TITLE “Money”
PERFORMER “Pink Floyd”
ISRC 000000000000
INDEX 01 00:00:00
FILE “06 Them.wav” WAVE
TRACK 06 AUDIO
TITLE “Them”
PERFORMER “Pink Floyd”
ISRC 000000000000
INDEX 01 00:00:00
FILE “07 Any Colour You Like.wav” WAVE
TRACK 07 AUDIO
TITLE “Any Colour You Like”
PERFORMER “Pink Floyd”
ISRC 000000000000
INDEX 01 00:00:00
FILE “08 Brain Damage.wav” WAVE
TRACK 08 AUDIO
TITLE “Brain Damage”
PERFORMER “Pink Floyd”
ISRC 000000000000
INDEX 01 00:00:00
FILE “09 Eclipse.wav” WAVE
TRACK 09 AUDIO
TITLE “Eclipse”
PERFORMER “Pink Floyd”
ISRC 000000000000
INDEX 01 00:00:00
FILE “10 Red Beard 1988 Radio Special.wav” WAVE
TRACK 10 AUDIO
TITLE “Red Beard 1988 Radio Special”
PERFORMER “Pink Floyd”
ISRC 000000000000
INDEX 01 00:00:00
FILE “11 Roger The Hat Interview.wav” WAVE
TRACK 11 AUDIO
TITLE “Roger The Hat Interview”
PERFORMER “Pink Floyd”
ISRC 000000000000
INDEX 01 00:00:00
FILE “12 Eclipse (Isolated Backing Track).wav” WAVE
TRACK 12 AUDIO
TITLE “Eclipse (Isolated Backing Track)”
PERFORMER “Pink Floyd”
ISRC 000000000000
INDEX 01 00:00:00

REM DISCID 7A12500A
REM COMMENT “ExactAudioCopy v1.0b3”
PERFORMER “Pink Floyd”
TITLE “TDSOTM Disc 4”
FILE “01 Speak To Me , Breathe In The Air (Live).wav” WAVE
TRACK 01 AUDIO
TITLE “Speak To Me / Breathe In The Air (Live)”
PERFORMER “Pink Floyd”
ISRC 0?4001500000
INDEX 01 00:00:00
FILE “02 On The Run (Live).wav” WAVE
TRACK 02 AUDIO
TITLE “On The Run (Live)”
PERFORMER “Pink Floyd”
ISRC 000000000000
INDEX 01 00:00:00
FILE “03 Time (Live).wav” WAVE
TRACK 03 AUDIO
TITLE “Time (Live)”
PERFORMER “Pink Floyd”
ISRC 000000000000
INDEX 01 00:00:00
FILE “04 The Great Gig In The Sky (Live).wav” WAVE
TRACK 04 AUDIO
TITLE “The Great Gig In The Sky (Live)”
PERFORMER “Pink Floyd”
ISRC 000000000000
INDEX 01 00:00:00
FILE “05 Money (Live).wav” WAVE
TRACK 05 AUDIO
TITLE “Money (Live)”
PERFORMER “Pink Floyd”
ISRC 000000000000
INDEX 01 00:00:00
FILE “06 Us & Them (Live).wav” WAVE
TRACK 06 AUDIO
TITLE “Us & Them (Live)”
PERFORMER “Pink Floyd”
ISRC 000000000000
INDEX 01 00:00:00
FILE “07 Any Colour You Like (Live).wav” WAVE
TRACK 07 AUDIO
TITLE “Any Colour You Like (Live)”
PERFORMER “Pink Floyd”
ISRC 000000000000
INDEX 01 00:00:00
FILE “08 Brain Damage (Live).wav” WAVE
TRACK 08 AUDIO
TITLE “Brain Damage (Live)”
PERFORMER “Pink Floyd”
ISRC 000000000000
INDEX 01 00:00:00
FILE “09 Eclipse (Live).wav” WAVE
TRACK 09 AUDIO
TITLE “Eclipse (Live)”
PERFORMER “Pink Floyd”
ISRC 000000000000
INDEX 01 00:00:00
FILE “10 Echoes (Live).wav” WAVE
TRACK 10 AUDIO
TITLE “Echoes (Live)”
PERFORMER “Pink Floyd”
ISRC 000000000000
INDEX 01 00:00:00

REM DISCID E2122511
REM COMMENT “ExactAudioCopy v1.0b3”
PERFORMER “Pink Floyd”
TITLE “TDSOTM Disc 1”
FILE “01 Speak To Me . Breathe In The Air (US Promo EP).wav” WAVE
TRACK 01 AUDIO
TITLE “Speak To Me . Breathe In The Air (US Promo EP)”
PERFORMER “Pink Floyd”
ISRC 0?4006800000
INDEX 01 00:00:00
FILE “02 On The Run (Live).wav” WAVE
TRACK 02 AUDIO
TITLE “On The Run (Live)”
PERFORMER “Pink Floyd”
ISRC 000000000000
INDEX 01 00:00:00
FILE “03 Time (Pre-Production).wav” WAVE
TRACK 03 AUDIO
TITLE “Time (Pre-Production)”
PERFORMER “Pink Floyd”
ISRC 000000000000
INDEX 01 00:00:00
FILE “04 Time (Stereo Single Edit).wav” WAVE
TRACK 04 AUDIO
TITLE “Time (Stereo Single Edit)”
PERFORMER “Pink Floyd”
ISRC 000000000000
INDEX 01 00:00:00
FILE “05 The Great Gig In The Sky (Live).wav” WAVE
TRACK 05 AUDIO
TITLE “The Great Gig In The Sky (Live)”
PERFORMER “Pink Floyd”
ISRC 000000000000
INDEX 01 00:00:00
FILE “06 Money (Stereo Single Edit).wav” WAVE
TRACK 06 AUDIO
TITLE “Money (Stereo Single Edit)”
PERFORMER “Pink Floyd”
ISRC 000000000000
INDEX 01 00:00:00
FILE “07 Money (US Promo Single Soft Stereo).wav” WAVE
TRACK 07 AUDIO
TITLE “Money (US Promo Single Soft Stereo)”
PERFORMER “Pink Floyd”
ISRC 000000000000
INDEX 01 00:00:00
FILE “08 Money (Dance Songs Version, 1981 Re-Recording).wav” WAVE
TRACK 08 AUDIO
TITLE “Money (Dance Songs Version, 1981 Re-Recording)”
PERFORMER “Pink Floyd”
ISRC 000000000000
INDEX 01 00:00:00
FILE “09 Us & Them (Demo).wav” WAVE
TRACK 09 AUDIO
TITLE “Us & Them (Demo)”
PERFORMER “Pink Floyd”
ISRC 000000000000
INDEX 01 00:00:00
FILE “10 Us & Them (US Promo EP Stereo).wav” WAVE
TRACK 10 AUDIO
TITLE “Us & Them (US Promo EP Stereo)”
PERFORMER “Pink Floyd”
ISRC 000000000000
INDEX 01 00:00:00
FILE “11 Us & Them (Live).wav” WAVE
TRACK 11 AUDIO
TITLE “Us & Them (Live)”
PERFORMER “Pink Floyd”
ISRC 000000000000
INDEX 01 00:00:00
FILE “12 Any Colour You Like (Live).wav” WAVE
TRACK 12 AUDIO
TITLE “Any Colour You Like (Live)”
PERFORMER “Pink Floyd”
ISRC 000000000000
INDEX 01 00:00:00
FILE “13 Any Colour You Like (Stereo Single B-Side).wav” WAVE
TRACK 13 AUDIO
TITLE “Any Colour You Like (Stereo Single B-Side)”
PERFORMER “Pink Floyd”
ISRC 000000000000
INDEX 01 00:00:00
FILE “14 Brain Damage . Eclipse (Demo).wav” WAVE
TRACK 14 AUDIO
TITLE “Brain Damage . Eclipse (Demo)”
PERFORMER “Pink Floyd”
ISRC 000000000000
INDEX 01 00:00:00
FILE “15 Brain Damage (Live).wav” WAVE
TRACK 15 AUDIO
TITLE “Brain Damage (Live)”
PERFORMER “Pink Floyd”
ISRC 000000000000
INDEX 01 00:00:00
FILE “16 Eclipse (Live).wav” WAVE
TRACK 16 AUDIO
TITLE “Eclipse (Live)”
PERFORMER “Pink Floyd”
ISRC 000000000000
INDEX 01 00:00:00
FILE “17 Eclipse (Mysterious Music At Ending).wav” WAVE
TRACK 17 AUDIO
TITLE “Eclipse (Mysterious Music At Ending)”
PERFORMER “Pink Floyd”
ISRC 000000000000
INDEX 01 00:00:00

Exact Audio Copy V1.0 beta 3 from 29. August 2011

EAC extraction logfile from 25. February 2019, 18:41

Pink Floyd / TDSOTM Disc 2

Used drive : TSSTcorpCDDVDW SH-S223Q Adapter: 1 ID: 0

Read mode : Secure
Utilize accurate stream : Yes
Defeat audio cache : Yes
Make use of C2 pointers : No

Read offset correction : 6
Overread into Lead-In and Lead-Out : No
Fill up missing offset samples with silence : Yes
Delete leading and trailing silent blocks : No
Null samples used in CRC calculations : Yes
Used interface : Native Win32 interface for Win NT & 2000
Gap handling : Appended to previous track

Used output format : User Defined Encoder
Selected bitrate : 1024 kBit/s
Quality : Low
Add ID3 tag : No
Command line compressor : C:\Program Files\Exact Audio Copy\FLAC\FLAC.EXE
Additional command line options : -8 -V -T “ARTIST=%artist%” -T “TITLE=%title%” -T “ALBUM=%albumtitle%” -T “DATE=%year%” -T “TRACKNUMBER=%tracknr%” -T “GENRE=%genre%” -T “COMMENT=%comment%” -T “BAND=%albuminterpret%” -T “ALBUMARTIST=%albuminterpret%” -T “COMPOSER=%composer%” %haslyrics%–tag-from-file=LYRICS=”%lyricsfile%”%haslyrics% -T “DISCNUMBER=%cdnumber%” -T “TOTALDISCS=%totalcds%” -T “TOTALTRACKS=%numtracks%” %hascover%–picture=”%coverfile%”%hascover% %source% -o %dest%

TOC of the extracted CD

Track | Start | Length | Start sector | End sector
———————————————————
1 | 0:00.00 | 1:09.22 | 0 | 5196
2 | 1:09.22 | 2:44.57 | 5197 | 17553
3 | 3:54.04 | 2:45.13 | 17554 | 29941
4 | 6:39.17 | 3:34.51 | 29942 | 46042
5 | 10:13.68 | 7:08.21 | 46043 | 78163
6 | 17:22.14 | 6:59.14 | 78164 | 109602
7 | 24:21.28 | 6:56.55 | 109603 | 140857
8 | 31:18.08 | 4:44.13 | 140858 | 162170
9 | 36:02.21 | 6:29.74 | 162171 | 191419
10 | 42:32.20 | 6:43.06 | 191420 | 221650
11 | 49:15.26 | 6:37.25 | 221651 | 251450
12 | 55:52.51 | 7:17.07 | 251451 | 284232
13 | 63:09.58 | 7:35.47 | 284233 | 318404
14 | 70:45.30 | 3:24.44 | 318405 | 333748
15 | 74:09.74 | 3:53.54 | 333749 | 351277
16 | 78:03.53 | 1:53.37 | 351278 | 359789

Track 1

Filename C:\z\Pink Floyd – Dark Side Of The Moon – Hi-Res Remasters (2018) FLAC\CD2 – Isolations\01 Speak To Me (Quad Version).wav

Pre-gap length 0:00:02.00

Peak level 89.8 %
Extraction speed 3.5 X
Track quality 100.0 %
Test CRC 27CD41A5
Copy CRC 27CD41A5
Track not present in AccurateRip database
Copy OK

Track 2

Filename C:\z\Pink Floyd – Dark Side Of The Moon – Hi-Res Remasters (2018) FLAC\CD2 – Isolations\02 Breathe In The Air (Rhythm & Pedal Steel Guitar).wav

Peak level 88.6 %
Extraction speed 4.7 X
Track quality 100.0 %
Test CRC 9A124755
Copy CRC 9A124755
Track not present in AccurateRip database
Copy OK

Track 3

Filename C:\z\Pink Floyd – Dark Side Of The Moon – Hi-Res Remasters (2018) FLAC\CD2 – Isolations\03 Breathe In The Air (Backing Track With Vocals).wav

Peak level 97.9 %
Extraction speed 5.0 X
Track quality 100.0 %
Test CRC 63CB6BB0
Copy CRC 63CB6BB0
Track not present in AccurateRip database
Copy OK

Track 4

Filename C:\z\Pink Floyd – Dark Side Of The Moon – Hi-Res Remasters (2018) FLAC\CD2 – Isolations\04 On The Run (Effects).wav

Peak level 97.9 %
Extraction speed 5.5 X
Track quality 100.0 %
Test CRC A2156AE0
Copy CRC A2156AE0
Track not present in AccurateRip database
Copy OK

Track 5

Filename C:\z\Pink Floyd – Dark Side Of The Moon – Hi-Res Remasters (2018) FLAC\CD2 – Isolations\05 Time Breathe Reprise (Drums, Rhythm Git, Back Vocals, Organ).wav

Peak level 97.9 %
Extraction speed 5.6 X
Track quality 99.9 %
Test CRC 9FD4A57A
Copy CRC 9FD4A57A
Track not present in AccurateRip database
Copy OK

Track 6

Filename C:\z\Pink Floyd – Dark Side Of The Moon – Hi-Res Remasters (2018) FLAC\CD2 – Isolations\06 Time Breathe Reprise (Drums, Keys, Rhythm Guitar, Back Vocals).wav

Peak level 97.9 %
Extraction speed 7.0 X
Track quality 100.0 %
Test CRC D729B85A
Copy CRC D729B85A
Track not present in AccurateRip database
Copy OK

Track 7

Filename C:\z\Pink Floyd – Dark Side Of The Moon – Hi-Res Remasters (2018) FLAC\CD2 – Isolations\07 Time Breathe Reprise (Drums, Keys, Lead+Back Vocal, Lead Guitar).wav

Peak level 98.0 %
Extraction speed 7.6 X
Track quality 100.0 %
Test CRC 36497614
Copy CRC 36497614
Track not present in AccurateRip database
Copy OK

Track 8

Filename C:\z\Pink Floyd – Dark Side Of The Moon – Hi-Res Remasters (2018) FLAC\CD2 – Isolations\08 The Great Gig In The Sky (Piano, Pedal Steel Guitar, Drums, Voc).wav

Peak level 98.0 %
Extraction speed 6.3 X
Track quality 99.9 %
Test CRC E674EBCF
Copy CRC E674EBCF
Track not present in AccurateRip database
Copy OK

Track 9

Filename C:\z\Pink Floyd – Dark Side Of The Moon – Hi-Res Remasters (2018) FLAC\CD2 – Isolations\09 Money (Rhythm & Lead Guitars).wav

Peak level 97.9 %
Extraction speed 8.3 X
Track quality 100.0 %
Test CRC 8505278B
Copy CRC 8505278B
Track not present in AccurateRip database
Copy OK

Track 10

Filename C:\z\Pink Floyd – Dark Side Of The Moon – Hi-Res Remasters (2018) FLAC\CD2 – Isolations\10 Money (Bass, Drums, Guitars, Lead Vocals, Sax).wav

Peak level 98.0 %
Extraction speed 8.7 X
Track quality 100.0 %
Test CRC 6AFB82D5
Copy CRC 6AFB82D5
Track not present in AccurateRip database
Copy OK

Track 11

Filename C:\z\Pink Floyd – Dark Side Of The Moon – Hi-Res Remasters (2018) FLAC\CD2 – Isolations\11 Money (Rhythm & Lead Guitars, Keyboards).wav

Peak level 97.9 %
Extraction speed 9.1 X
Track quality 100.0 %
Test CRC 67FDEB92
Copy CRC 67FDEB92
Track not present in AccurateRip database
Copy OK

Track 12

Filename C:\z\Pink Floyd – Dark Side Of The Moon – Hi-Res Remasters (2018) FLAC\CD2 – Isolations\12 Us & Them (Drums, Sax).wav

Peak level 97.9 %
Extraction speed 9.6 X
Track quality 100.0 %
Test CRC EA418BC2
Copy CRC EA418BC2
Track not present in AccurateRip database
Copy OK

Track 13

Filename C:\z\Pink Floyd – Dark Side Of The Moon – Hi-Res Remasters (2018) FLAC\CD2 – Isolations\13 Us & Them (Drums, Rhythm Guitars, Organ, Vocals).wav

Peak level 97.9 %
Extraction speed 10.0 X
Track quality 100.0 %
Test CRC 0FD06E06
Copy CRC 0FD06E06
Track not present in AccurateRip database
Copy OK

Track 14

Filename C:\z\Pink Floyd – Dark Side Of The Moon – Hi-Res Remasters (2018) FLAC\CD2 – Isolations\14 Any Colour You Like (Moog, Guitars).wav

Peak level 97.9 %
Extraction speed 9.4 X
Track quality 100.0 %
Test CRC B3537EF0
Copy CRC B3537EF0
Track not present in AccurateRip database
Copy OK

Track 15

Filename C:\z\Pink Floyd – Dark Side Of The Moon – Hi-Res Remasters (2018) FLAC\CD2 – Isolations\15 Brain Damage (Basic Track With Chorus).wav

Peak level 97.9 %
Extraction speed 7.6 X
Track quality 99.9 %
Test CRC 49FE598F
Copy CRC 49FE598F
Track not present in AccurateRip database
Copy OK

Track 16

Filename C:\z\Pink Floyd – Dark Side Of The Moon – Hi-Res Remasters (2018) FLAC\CD2 – Isolations\16 Spoken Words & Sound Effects.wav

Peak level 97.8 %
Extraction speed 8.5 X
Track quality 100.0 %
Test CRC C66CEB77
Copy CRC C66CEB77
Track not present in AccurateRip database
Copy OK

None of the tracks are present in the AccurateRip database

No errors occurred

End of status report

==== Log checksum 102BBD340C999EAE16C14FC0881D2B7FE5DB326673AB36D155ECDF41A9753B8A ====

Exact Audio Copy V1.0 beta 3 from 29. August 2011

EAC extraction logfile from 25. February 2019, 19:15

Pink Floyd / TDSOTM Disc 3

Used drive : TSSTcorpCDDVDW SH-S223Q Adapter: 1 ID: 0

Read mode : Secure
Utilize accurate stream : Yes
Defeat audio cache : Yes
Make use of C2 pointers : No

Read offset correction : 6
Overread into Lead-In and Lead-Out : No
Fill up missing offset samples with silence : Yes
Delete leading and trailing silent blocks : No
Null samples used in CRC calculations : Yes
Used interface : Native Win32 interface for Win NT & 2000
Gap handling : Appended to previous track

Used output format : User Defined Encoder
Selected bitrate : 1024 kBit/s
Quality : Low
Add ID3 tag : No
Command line compressor : C:\Program Files\Exact Audio Copy\FLAC\FLAC.EXE
Additional command line options : -8 -V -T “ARTIST=%artist%” -T “TITLE=%title%” -T “ALBUM=%albumtitle%” -T “DATE=%year%” -T “TRACKNUMBER=%tracknr%” -T “GENRE=%genre%” -T “COMMENT=%comment%” -T “BAND=%albuminterpret%” -T “ALBUMARTIST=%albuminterpret%” -T “COMPOSER=%composer%” %haslyrics%–tag-from-file=LYRICS=”%lyricsfile%”%haslyrics% -T “DISCNUMBER=%cdnumber%” -T “TOTALDISCS=%totalcds%” -T “TOTALTRACKS=%numtracks%” %hascover%–picture=”%coverfile%”%hascover% %source% -o %dest%

TOC of the extracted CD

Track | Start | Length | Start sector | End sector
———————————————————
1 | 0:00.00 | 3:55.19 | 0 | 17643
2 | 3:55.19 | 3:33.70 | 17644 | 33688
3 | 7:29.14 | 7:05.29 | 33689 | 65592
4 | 14:34.43 | 4:47.08 | 65593 | 87125
5 | 19:21.51 | 6:23.07 | 87126 | 115857
6 | 25:44.58 | 7:48.66 | 115858 | 151023
7 | 33:33.49 | 3:25.34 | 151024 | 166432
8 | 36:59.08 | 3:50.70 | 166433 | 183752
9 | 40:50.03 | 2:09.74 | 183753 | 193501
10 | 43:00.02 | 23:21.74 | 193502 | 298650
11 | 66:22.01 | 7:35.01 | 298651 | 332776
12 | 73:57.02 | 1:56.00 | 332777 | 341476

Track 1

Filename C:\z\Pink Floyd – Dark Side Of The Moon – Hi-Res Remasters (2018) FLAC\CD3 – High Resolution Remaster + Bonus\01 Speak To Me , Breathe In The Air.wav

Pre-gap length 0:00:02.00

Peak level 97.9 %
Extraction speed 4.9 X
Track quality 100.0 %
Test CRC 3A7B085E
Copy CRC 3A7B085E
Track not present in AccurateRip database
Copy OK

Track 2

Filename C:\z\Pink Floyd – Dark Side Of The Moon – Hi-Res Remasters (2018) FLAC\CD3 – High Resolution Remaster + Bonus\02 On The Run.wav

Peak level 97.9 %
Extraction speed 5.2 X
Track quality 100.0 %
Test CRC 1448F885
Copy CRC 1448F885
Track not present in AccurateRip database
Copy OK

Track 3

Filename C:\z\Pink Floyd – Dark Side Of The Moon – Hi-Res Remasters (2018) FLAC\CD3 – High Resolution Remaster + Bonus\03 Time.wav

Peak level 98.0 %
Extraction speed 6.2 X
Track quality 100.0 %
Test CRC E0DCF3C9
Copy CRC E0DCF3C9
Track not present in AccurateRip database
Copy OK

Track 4

Filename C:\z\Pink Floyd – Dark Side Of The Moon – Hi-Res Remasters (2018) FLAC\CD3 – High Resolution Remaster + Bonus\04 The Great Gig In The Sky.wav

Peak level 98.0 %
Extraction speed 6.5 X
Track quality 100.0 %
Test CRC A4CC857A
Copy CRC A4CC857A
Track not present in AccurateRip database
Copy OK

Track 5

Filename C:\z\Pink Floyd – Dark Side Of The Moon – Hi-Res Remasters (2018) FLAC\CD3 – High Resolution Remaster + Bonus\05 Money.wav

Peak level 98.0 %
Extraction speed 6.1 X
Track quality 99.9 %
Test CRC 23FADF4F
Copy CRC 23FADF4F
Track not present in AccurateRip database
Copy OK

Track 6

Filename C:\z\Pink Floyd – Dark Side Of The Moon – Hi-Res Remasters (2018) FLAC\CD3 – High Resolution Remaster + Bonus\06 Them.wav

Peak level 98.0 %
Extraction speed 7.8 X
Track quality 100.0 %
Test CRC B2E7A836
Copy CRC B2E7A836
Track not present in AccurateRip database
Copy OK

Track 7

Filename C:\z\Pink Floyd – Dark Side Of The Moon – Hi-Res Remasters (2018) FLAC\CD3 – High Resolution Remaster + Bonus\07 Any Colour You Like.wav

Peak level 98.0 %
Extraction speed 7.5 X
Track quality 100.0 %
Test CRC 510A5866
Copy CRC 510A5866
Track not present in AccurateRip database
Copy OK

Track 8

Filename C:\z\Pink Floyd – Dark Side Of The Moon – Hi-Res Remasters (2018) FLAC\CD3 – High Resolution Remaster + Bonus\08 Brain Damage.wav

Peak level 98.0 %
Extraction speed 7.8 X
Track quality 100.0 %
Test CRC 8FCD3038
Copy CRC 8FCD3038
Track not present in AccurateRip database
Copy OK

Track 9

Filename C:\z\Pink Floyd – Dark Side Of The Moon – Hi-Res Remasters (2018) FLAC\CD3 – High Resolution Remaster + Bonus\09 Eclipse.wav

Peak level 98.0 %
Extraction speed 7.1 X
Track quality 100.0 %
Test CRC 48B058D5
Copy CRC 48B058D5
Track not present in AccurateRip database
Copy OK

Track 10

Filename C:\z\Pink Floyd – Dark Side Of The Moon – Hi-Res Remasters (2018) FLAC\CD3 – High Resolution Remaster + Bonus\10 Red Beard 1988 Radio Special.wav

Peak level 97.9 %
Extraction speed 9.4 X
Track quality 99.9 %
Test CRC 8566F77B
Copy CRC 8566F77B
Track not present in AccurateRip database
Copy OK

Track 11

Filename C:\z\Pink Floyd – Dark Side Of The Moon – Hi-Res Remasters (2018) FLAC\CD3 – High Resolution Remaster + Bonus\11 Roger The Hat Interview.wav

Peak level 89.1 %
Extraction speed 10.0 X
Track quality 100.0 %
Test CRC A70287ED
Copy CRC A70287ED
Track not present in AccurateRip database
Copy OK

Track 12

Filename C:\z\Pink Floyd – Dark Side Of The Moon – Hi-Res Remasters (2018) FLAC\CD3 – High Resolution Remaster + Bonus\12 Eclipse (Isolated Backing Track).wav

Peak level 97.9 %
Extraction speed 8.3 X
Track quality 100.0 %
Test CRC 369B24D3
Copy CRC 369B24D3
Track not present in AccurateRip database
Copy OK

None of the tracks are present in the AccurateRip database

No errors occurred

End of status report

==== Log checksum FCA3C03A31A50685EB9B425E384C10EEC4038C627BB6FCE0AEC652374BEED2F8 ====

Exact Audio Copy V1.0 beta 3 from 29. August 2011

EAC extraction logfile from 25. February 2019, 19:40

Pink Floyd / TDSOTM Disc 4

Used drive : TSSTcorpCDDVDW SH-S223Q Adapter: 1 ID: 0

Read mode : Secure
Utilize accurate stream : Yes
Defeat audio cache : Yes
Make use of C2 pointers : No

Read offset correction : 6
Overread into Lead-In and Lead-Out : No
Fill up missing offset samples with silence : Yes
Delete leading and trailing silent blocks : No
Null samples used in CRC calculations : Yes
Used interface : Native Win32 interface for Win NT & 2000
Gap handling : Appended to previous track

Used output format : User Defined Encoder
Selected bitrate : 1024 kBit/s
Quality : Low
Add ID3 tag : No
Command line compressor : C:\Program Files\Exact Audio Copy\FLAC\FLAC.EXE
Additional command line options : -8 -V -T “ARTIST=%artist%” -T “TITLE=%title%” -T “ALBUM=%albumtitle%” -T “DATE=%year%” -T “TRACKNUMBER=%tracknr%” -T “GENRE=%genre%” -T “COMMENT=%comment%” -T “BAND=%albuminterpret%” -T “ALBUMARTIST=%albuminterpret%” -T “COMPOSER=%composer%” %haslyrics%–tag-from-file=LYRICS=”%lyricsfile%”%haslyrics% -T “DISCNUMBER=%cdnumber%” -T “TOTALDISCS=%totalcds%” -T “TOTALTRACKS=%numtracks%” %hascover%–picture=”%coverfile%”%hascover% %source% -o %dest%

TOC of the extracted CD

Track | Start | Length | Start sector | End sector
———————————————————
1 | 0:00.00 | 5:23.41 | 0 | 24265
2 | 5:23.41 | 4:48.70 | 24266 | 45935
3 | 10:12.36 | 6:49.13 | 45936 | 76623
4 | 17:01.49 | 6:46.38 | 76624 | 107111
5 | 23:48.12 | 7:55.11 | 107112 | 142747
6 | 31:43.23 | 7:53.73 | 142748 | 178295
7 | 39:37.21 | 7:34.29 | 178296 | 212374
8 | 47:11.50 | 3:42.67 | 212375 | 229091
9 | 50:54.42 | 2:19.50 | 229092 | 239566
10 | 53:14.17 | 24:54.00 | 239567 | 351616

Track 1

Filename C:\z\Pink Floyd – Dark Side Of The Moon – Hi-Res Remasters (2018) FLAC\CD4 – Live At Wembley UK 1974-11-16\01 Speak To Me , Breathe In The Air (Live).wav

Pre-gap length 0:00:02.00

Peak level 98.0 %
Extraction speed 5.2 X
Track quality 100.0 %
Test CRC D1BF73D2
Copy CRC D1BF73D2
Track not present in AccurateRip database
Copy OK

Track 2

Filename C:\z\Pink Floyd – Dark Side Of The Moon – Hi-Res Remasters (2018) FLAC\CD4 – Live At Wembley UK 1974-11-16\02 On The Run (Live).wav

Peak level 97.9 %
Extraction speed 5.7 X
Track quality 100.0 %
Test CRC 043EAAC7
Copy CRC 043EAAC7
Track not present in AccurateRip database
Copy OK

Track 3

Filename C:\z\Pink Floyd – Dark Side Of The Moon – Hi-Res Remasters (2018) FLAC\CD4 – Live At Wembley UK 1974-11-16\03 Time (Live).wav

Peak level 98.0 %
Extraction speed 6.4 X
Track quality 100.0 %
Test CRC 9BBB3F3D
Copy CRC 9BBB3F3D
Track not present in AccurateRip database
Copy OK

Track 4

Filename C:\z\Pink Floyd – Dark Side Of The Moon – Hi-Res Remasters (2018) FLAC\CD4 – Live At Wembley UK 1974-11-16\04 The Great Gig In The Sky (Live).wav

Peak level 98.0 %
Extraction speed 7.0 X
Track quality 100.0 %
Test CRC 09F22C95
Copy CRC 09F22C95
Track not present in AccurateRip database
Copy OK

Track 5

Filename C:\z\Pink Floyd – Dark Side Of The Moon – Hi-Res Remasters (2018) FLAC\CD4 – Live At Wembley UK 1974-11-16\05 Money (Live).wav

Peak level 98.0 %
Extraction speed 7.6 X
Track quality 100.0 %
Test CRC 974C6053
Copy CRC 974C6053
Track not present in AccurateRip database
Copy OK

Track 6

Filename C:\z\Pink Floyd – Dark Side Of The Moon – Hi-Res Remasters (2018) FLAC\CD4 – Live At Wembley UK 1974-11-16\06 Us & Them (Live).wav

Peak level 98.0 %
Extraction speed 8.2 X
Track quality 100.0 %
Test CRC E87292A4
Copy CRC E87292A4
Track not present in AccurateRip database
Copy OK

Track 7

Filename C:\z\Pink Floyd – Dark Side Of The Moon – Hi-Res Remasters (2018) FLAC\CD4 – Live At Wembley UK 1974-11-16\07 Any Colour You Like (Live).wav

Peak level 98.0 %
Extraction speed 8.7 X
Track quality 100.0 %
Test CRC EF641299
Copy CRC EF641299
Track not present in AccurateRip database
Copy OK

Track 8

Filename C:\z\Pink Floyd – Dark Side Of The Moon – Hi-Res Remasters (2018) FLAC\CD4 – Live At Wembley UK 1974-11-16\08 Brain Damage (Live).wav

Peak level 98.0 %
Extraction speed 8.2 X
Track quality 100.0 %
Test CRC 9DEF3055
Copy CRC 9DEF3055
Track not present in AccurateRip database
Copy OK

Track 9

Filename C:\z\Pink Floyd – Dark Side Of The Moon – Hi-Res Remasters (2018) FLAC\CD4 – Live At Wembley UK 1974-11-16\09 Eclipse (Live).wav

Peak level 98.0 %
Extraction speed 7.9 X
Track quality 100.0 %
Test CRC A3B8C288
Copy CRC A3B8C288
Track not present in AccurateRip database
Copy OK

Track 10

Filename C:\z\Pink Floyd – Dark Side Of The Moon – Hi-Res Remasters (2018) FLAC\CD4 – Live At Wembley UK 1974-11-16\10 Echoes (Live).wav

Peak level 98.0 %
Extraction speed 9.9 X
Track quality 99.9 %
Test CRC C942D38B
Copy CRC C942D38B
Track not present in AccurateRip database
Copy OK

None of the tracks are present in the AccurateRip database

No errors occurred

End of status report

==== Log checksum C8826BF052B3D274AC379FAB2EACC4B803088DC1BA6667FE64E77BA13E93B29E ====


Leave a Reply

Your email address will not be published. Required fields are marked *

Enter the text from the image below
 

This site uses Akismet to reduce spam. Learn how your comment data is processed.