Pink Floyd – The Dark Side Of The Moon (Limited Remastered Japanese Edition)




No Cover available

Artist: Pink Floyd
Year: 1973/2011
Genre: Rock
Notes: Discogs
Add. Notes: Limited Remastered Japanese Edition
Watch Songs on: YouTube
Cover incl.: Yes
Encoder: FLAC
Bitrate: ~800 kBit/s (44.1 kHz/16 Bit/s)
Log & Cue incl.: Yes/Yes
Size: 343,6 MB
Password: “slam” (without ” “)


All Downloads/Hosters are compatible

Download 1
KatFile.com
Turbobit.net
FileFactory.com
Rapidgator.net
Download 2
KatFile.com
Turbobit.net
FileFactory.com
Rapidgator.net

Tracklist:

1(a) - Speak To Me - 3:59
1(b) - Breathe - 
2 - On The Run - 3:53
3 - Time - 6:45
4 - The Great Gig In The Sky - 4:48
5 - Money - 6:24
6 - Us And Them - 7:48
7 - Any Colour You Like - 3:25
8 - Brain Damage - 3:50
9 - Eclipse - 2:04

EAC-Log, CUE-Sheed & NFO:

Click to open spoiler
Exact Audio Copy V0.99 prebeta 5 from 4. May 2009

EAC extraction logfile from 3. October 2011, 9:41

Pink Floyd / The Dark Side Of The Moon

Used drive : SONY CDRW/DVD CRX835E Adapter: 4 ID: 0

Read mode : Secure
Utilize accurate stream : Yes
Defeat audio cache : Yes
Make use of C2 pointers : No

Read offset correction : 6
Overread into Lead-In and Lead-Out : No
Fill up missing offset samples with silence : Yes
Delete leading and trailing silent blocks : No
Null samples used in CRC calculations : Yes
Used interface : Native Win32 interface for Win NT & 2000
Gap handling : Appended to previous track

Used output format : User Defined Encoder
Selected bitrate : 1024 kBit/s
Quality : High
Add ID3 tag : No
Command line compressor : C:\Program Files (x86)\Exact Audio Copy\Flac\flac.exe
Additional command line options : -8 -V -T “ARTIST=%a” -T “TITLE=%t” -T “ALBUM=%g” -T “DATE=%y” -T “TRACKNUMBER=%n” -T “TOTALTRACKS=%x” -T “GENRE=%m” -T “ALBUM ARTIST=%v” -T “ALBUMARTIST=%v” -T “COMMENT=EAC V0.99 prebeta 5, Secure Mode, Test & Copy, Accurat

TOC of the extracted CD

Track | Start | Length | Start sector | End sector
———————————————————
1 | 0:00.00 | 1:07.13 | 0 | 5037
2 | 1:07.13 | 2:49.40 | 5038 | 17752
3 | 3:56.53 | 3:45.29 | 17753 | 34656
4 | 7:42.07 | 6:53.29 | 34657 | 65660
5 | 14:35.36 | 4:44.05 | 65661 | 86965
6 | 19:19.41 | 6:23.15 | 86966 | 115705
7 | 25:42.56 | 7:49.17 | 115706 | 150897
8 | 33:31.73 | 3:26.32 | 150898 | 166379
9 | 36:58.30 | 3:46.50 | 166380 | 183379
10 | 40:45.05 | 2:12.45 | 183380 | 193324

Track 1

Filename C:\Losslessworld.info\Pink Floyd – The Discovery Studio Album Box Set (2011) [FLAC] { Japan, Remastered, 16 CDs, EMI, TOCP-71147-62 }\Pink Floyd – The Dark Side Of The Moon (1973) [FLAC] { TOCP-71139 }\01 – Speak To Me.wav

Pre-gap length 0:00:02.00

Peak level 40.6 %
Track quality 100.0 %
Test CRC 51A0D249
Copy CRC 51A0D249
Copy OK

Track 2

Filename C:\Losslessworld.info\Pink Floyd – The Discovery Studio Album Box Set (2011) [FLAC] { Japan, Remastered, 16 CDs, EMI, TOCP-71147-62 }\Pink Floyd – The Dark Side Of The Moon (1973) [FLAC] { TOCP-71139 }\02 – Breathe.wav

Peak level 92.8 %
Track quality 100.0 %
Test CRC D8F8F75E
Copy CRC D8F8F75E
Copy OK

Track 3

Filename C:\Losslessworld.info\Pink Floyd – The Discovery Studio Album Box Set (2011) [FLAC] { Japan, Remastered, 16 CDs, EMI, TOCP-71147-62 }\Pink Floyd – The Dark Side Of The Moon (1973) [FLAC] { TOCP-71139 }\03 – On The Run.wav

Peak level 99.5 %
Track quality 100.0 %
Test CRC 01369190
Copy CRC 01369190
Copy OK

Track 4

Filename C:\Losslessworld.info\Pink Floyd – The Discovery Studio Album Box Set (2011) [FLAC] { Japan, Remastered, 16 CDs, EMI, TOCP-71147-62 }\Pink Floyd – The Dark Side Of The Moon (1973) [FLAC] { TOCP-71139 }\04 – Time.wav

Peak level 96.6 %
Track quality 99.9 %
Test CRC 75CEDC1E
Copy CRC 75CEDC1E
Copy OK

Track 5

Filename C:\Losslessworld.info\Pink Floyd – The Discovery Studio Album Box Set (2011) [FLAC] { Japan, Remastered, 16 CDs, EMI, TOCP-71147-62 }\Pink Floyd – The Dark Side Of The Moon (1973) [FLAC] { TOCP-71139 }\05 – The Great Gig In The Sky.wav

Peak level 98.4 %
Track quality 100.0 %
Test CRC 51077BD9
Copy CRC 51077BD9
Copy OK

Track 6

Filename C:\Losslessworld.info\Pink Floyd – The Discovery Studio Album Box Set (2011) [FLAC] { Japan, Remastered, 16 CDs, EMI, TOCP-71147-62 }\Pink Floyd – The Dark Side Of The Moon (1973) [FLAC] { TOCP-71139 }\06 – Money.wav

Peak level 100.0 %
Track quality 99.9 %
Test CRC 1616D301
Copy CRC 1616D301
Copy OK

Track 7

Filename C:\Losslessworld.info\Pink Floyd – The Discovery Studio Album Box Set (2011) [FLAC] { Japan, Remastered, 16 CDs, EMI, TOCP-71147-62 }\Pink Floyd – The Dark Side Of The Moon (1973) [FLAC] { TOCP-71139 }\07 – Us And Them.wav

Peak level 90.6 %
Track quality 100.0 %
Test CRC D32BB379
Copy CRC D32BB379
Copy OK

Track 8

Filename C:\Losslessworld.info\Pink Floyd – The Discovery Studio Album Box Set (2011) [FLAC] { Japan, Remastered, 16 CDs, EMI, TOCP-71147-62 }\Pink Floyd – The Dark Side Of The Moon (1973) [FLAC] { TOCP-71139 }\08 – Any Colour You Like.wav

Peak level 100.0 %
Track quality 100.0 %
Test CRC BA9606A7
Copy CRC BA9606A7
Copy OK

Track 9

Filename C:\Losslessworld.info\Pink Floyd – The Discovery Studio Album Box Set (2011) [FLAC] { Japan, Remastered, 16 CDs, EMI, TOCP-71147-62 }\Pink Floyd – The Dark Side Of The Moon (1973) [FLAC] { TOCP-71139 }\09 – Brain Damage.wav

Peak level 99.7 %
Track quality 100.0 %
Test CRC D9CD3180
Copy CRC D9CD3180
Copy OK

Track 10

Filename C:\Losslessworld.info\Pink Floyd – The Discovery Studio Album Box Set (2011) [FLAC] { Japan, Remastered, 16 CDs, EMI, TOCP-71147-62 }\Pink Floyd – The Dark Side Of The Moon (1973) [FLAC] { TOCP-71139 }\10 – Eclipse.wav

Peak level 100.0 %
Track quality 100.0 %
Test CRC A29E91CF
Copy CRC A29E91CF
Copy OK

No errors occurred

End of status report

REM GENRE “Progressive Rock”
REM DATE 1973
REM DISCID 760A110A
REM COMMENT “ExactAudioCopy v0.99pb5”
PERFORMER “Pink Floyd”
TITLE “The Dark Side Of The Moon”
FILE “01 – Speak To Me.wav” WAVE
TRACK 01 AUDIO
TITLE “Speak To Me”
PERFORMER “Pink Floyd”
INDEX 01 00:00:00
FILE “02 – Breathe.wav” WAVE
TRACK 02 AUDIO
TITLE “Breathe”
PERFORMER “Pink Floyd”
INDEX 01 00:00:00
FILE “03 – On The Run.wav” WAVE
TRACK 03 AUDIO
TITLE “On The Run”
PERFORMER “Pink Floyd”
INDEX 01 00:00:00
FILE “04 – Time.wav” WAVE
TRACK 04 AUDIO
TITLE “Time”
PERFORMER “Pink Floyd”
INDEX 01 00:00:00
FILE “05 – The Great Gig In The Sky.wav” WAVE
TRACK 05 AUDIO
TITLE “The Great Gig In The Sky”
PERFORMER “Pink Floyd”
INDEX 01 00:00:00
FILE “06 – Money.wav” WAVE
TRACK 06 AUDIO
TITLE “Money”
PERFORMER “Pink Floyd”
INDEX 01 00:00:00
FILE “07 – Us And Them.wav” WAVE
TRACK 07 AUDIO
TITLE “Us And Them”
PERFORMER “Pink Floyd”
INDEX 01 00:00:00
FILE “08 – Any Colour You Like.wav” WAVE
TRACK 08 AUDIO
TITLE “Any Colour You Like”
PERFORMER “Pink Floyd”
INDEX 01 00:00:00
FILE “09 – Brain Damage.wav” WAVE
TRACK 09 AUDIO
TITLE “Brain Damage”
PERFORMER “Pink Floyd”
INDEX 01 00:00:00
FILE “10 – Eclipse.wav” WAVE
TRACK 10 AUDIO
TITLE “Eclipse”
PERFORMER “Pink Floyd”
INDEX 01 00:00:00


Leave a Reply

Your email address will not be published. Required fields are marked *

Enter the text from the image below
 

This site uses Akismet to reduce spam. Learn how your comment data is processed.