Pink Floyd – Obscured By Clouds (Japanese Edition)




Artist: Pink Floyd
Year: 1972/2011
Genre: Rock
Notes: Discogs
Add. Notes: Japanese Edition
Encoder: FLAC
Bitrate: ~700 kBit/s (44.1 kHz/16 Bit/s)
Size: 305,65 MB
Password: “slam” (without ” “)


Crypted via FileCrypt.cc:

.

Crypted via Relink.to:

Tracklist:

1 - Obscured By Clouds - 3:05
2 - When You're In - 2:31
3 - Burning Bridges - 3:30
4 - The Gold It's In The... - 3:08
5 - Wot's... Uh The Deal - 5:09
6 - Mudmen - 4:18
7 - Childhood's End - 4:34
8 - Free Four - 4:17
9 - Stay - 4:08
10 - Absolutely Curtains - 5:51

EAC-Log, CUE-Sheed & NFO:

Click to open spoiler
Exact Audio Copy V0.99 prebeta 5 from 4. May 2009

EAC extraction logfile from 3. October 2011, 8:58

PINK FLOYD / OBSCURED BY CLOUDS

Used drive : SONY CDRW/DVD CRX835E Adapter: 4 ID: 0

Read mode : Secure
Utilize accurate stream : Yes
Defeat audio cache : Yes
Make use of C2 pointers : No

Read offset correction : 6
Overread into Lead-In and Lead-Out : No
Fill up missing offset samples with silence : Yes
Delete leading and trailing silent blocks : No
Null samples used in CRC calculations : Yes
Used interface : Native Win32 interface for Win NT & 2000
Gap handling : Appended to previous track

Used output format : User Defined Encoder
Selected bitrate : 1024 kBit/s
Quality : High
Add ID3 tag : No
Command line compressor : C:\Program Files (x86)\Exact Audio Copy\Flac\flac.exe
Additional command line options : -8 -V -T “ARTIST=%a” -T “TITLE=%t” -T “ALBUM=%g” -T “DATE=%y” -T “TRACKNUMBER=%n” -T “TOTALTRACKS=%x” -T “GENRE=%m” -T “ALBUM ARTIST=%v” -T “ALBUMARTIST=%v” -T “COMMENT=EAC V0.99 prebeta 5, Secure Mode, Test & Copy, Accurat

TOC of the extracted CD

Track | Start | Length | Start sector | End sector
———————————————————
1 | 0:00.00 | 3:05.03 | 0 | 13877
2 | 3:05.03 | 2:31.21 | 13878 | 25223
3 | 5:36.24 | 3:30.25 | 25224 | 40998
4 | 9:06.49 | 3:07.62 | 40999 | 55085
5 | 12:14.36 | 5:09.08 | 55086 | 78268
6 | 17:23.44 | 4:17.68 | 78269 | 97611
7 | 21:41.37 | 4:33.29 | 97612 | 118115
8 | 26:14.66 | 4:16.59 | 118116 | 137374
9 | 30:31.50 | 4:07.56 | 137375 | 155955
10 | 34:39.31 | 5:52.48 | 155956 | 182403

Track 1

Filename C:\Losslessworld.info\Pink Floyd – The Discovery Studio Album Box Set (2011) [FLAC] { Japan, Remastered, 16 CDs, EMI, TOCP-71147-62 }\Pink Floyd – Obscured By Clouds (1972) [FLAC] { TOCP-71138 }\01 – Obscured By Clouds.wav

Pre-gap length 0:00:02.00

Peak level 100.0 %
Track quality 100.0 %
Test CRC EABFD94B
Copy CRC EABFD94B
Copy OK

Track 2

Filename C:\Losslessworld.info\Pink Floyd – The Discovery Studio Album Box Set (2011) [FLAC] { Japan, Remastered, 16 CDs, EMI, TOCP-71147-62 }\Pink Floyd – Obscured By Clouds (1972) [FLAC] { TOCP-71138 }\02 – When You’re In.wav

Peak level 100.0 %
Track quality 100.0 %
Test CRC F0CD6E73
Copy CRC F0CD6E73
Copy OK

Track 3

Filename C:\Losslessworld.info\Pink Floyd – The Discovery Studio Album Box Set (2011) [FLAC] { Japan, Remastered, 16 CDs, EMI, TOCP-71147-62 }\Pink Floyd – Obscured By Clouds (1972) [FLAC] { TOCP-71138 }\03 – Burning Bridges.wav

Peak level 99.2 %
Track quality 100.0 %
Test CRC DDFEB730
Copy CRC DDFEB730
Copy OK

Track 4

Filename C:\Losslessworld.info\Pink Floyd – The Discovery Studio Album Box Set (2011) [FLAC] { Japan, Remastered, 16 CDs, EMI, TOCP-71147-62 }\Pink Floyd – Obscured By Clouds (1972) [FLAC] { TOCP-71138 }\04 – The Gold It’s In The….wav

Peak level 99.0 %
Track quality 100.0 %
Test CRC AE9CEA4E
Copy CRC AE9CEA4E
Copy OK

Track 5

Filename C:\Losslessworld.info\Pink Floyd – The Discovery Studio Album Box Set (2011) [FLAC] { Japan, Remastered, 16 CDs, EMI, TOCP-71147-62 }\Pink Floyd – Obscured By Clouds (1972) [FLAC] { TOCP-71138 }\05 – Wot’s… Uh The Deal.wav

Peak level 100.0 %
Track quality 100.0 %
Test CRC 52C17663
Copy CRC 52C17663
Copy OK

Track 6

Filename C:\Losslessworld.info\Pink Floyd – The Discovery Studio Album Box Set (2011) [FLAC] { Japan, Remastered, 16 CDs, EMI, TOCP-71147-62 }\Pink Floyd – Obscured By Clouds (1972) [FLAC] { TOCP-71138 }\06 – Mudmen.wav

Peak level 99.8 %
Track quality 100.0 %
Test CRC 44BC5669
Copy CRC 44BC5669
Copy OK

Track 7

Filename C:\Losslessworld.info\Pink Floyd – The Discovery Studio Album Box Set (2011) [FLAC] { Japan, Remastered, 16 CDs, EMI, TOCP-71147-62 }\Pink Floyd – Obscured By Clouds (1972) [FLAC] { TOCP-71138 }\07 – Childhood’s End.wav

Peak level 100.0 %
Track quality 100.0 %
Test CRC 3A2C12D2
Copy CRC 3A2C12D2
Copy OK

Track 8

Filename C:\Losslessworld.info\Pink Floyd – The Discovery Studio Album Box Set (2011) [FLAC] { Japan, Remastered, 16 CDs, EMI, TOCP-71147-62 }\Pink Floyd – Obscured By Clouds (1972) [FLAC] { TOCP-71138 }\08 – Free Four.wav

Peak level 95.2 %
Track quality 100.0 %
Test CRC D915A0C2
Copy CRC D915A0C2
Copy OK

Track 9

Filename C:\Losslessworld.info\Pink Floyd – The Discovery Studio Album Box Set (2011) [FLAC] { Japan, Remastered, 16 CDs, EMI, TOCP-71147-62 }\Pink Floyd – Obscured By Clouds (1972) [FLAC] { TOCP-71138 }\09 – Stay.wav

Peak level 100.0 %
Track quality 100.0 %
Test CRC CDA23B36
Copy CRC CDA23B36
Copy OK

Track 10

Filename C:\Losslessworld.info\Pink Floyd – The Discovery Studio Album Box Set (2011) [FLAC] { Japan, Remastered, 16 CDs, EMI, TOCP-71147-62 }\Pink Floyd – Obscured By Clouds (1972) [FLAC] { TOCP-71138 }\10 – Absolutely Curtains.wav

Peak level 99.8 %
Track quality 99.9 %
Test CRC 852AFA71
Copy CRC 852AFA71
Copy OK

No errors occurred

End of status report

REM GENRE “Progressive Rock”
REM DATE 1972
REM DISCID 7F09800A
REM COMMENT “ExactAudioCopy v0.99pb5”
PERFORMER “PINK FLOYD”
TITLE “OBSCURED BY CLOUDS”
FILE “01 – Obscured By Clouds.wav” WAVE
TRACK 01 AUDIO
TITLE “Obscured By Clouds”
PERFORMER “PINK FLOYD”
INDEX 01 00:00:00
FILE “02 – When You’re In.wav” WAVE
TRACK 02 AUDIO
TITLE “When You’re In”
PERFORMER “PINK FLOYD”
INDEX 01 00:00:00
FILE “03 – Burning Bridges.wav” WAVE
TRACK 03 AUDIO
TITLE “Burning Bridges”
PERFORMER “PINK FLOYD”
INDEX 01 00:00:00
FILE “04 – The Gold It’s In The….wav” WAVE
TRACK 04 AUDIO
TITLE “The Gold It’s In The…”
PERFORMER “PINK FLOYD”
INDEX 01 00:00:00
FILE “05 – Wot’s… Uh The Deal.wav” WAVE
TRACK 05 AUDIO
TITLE “Wot’s… Uh The Deal”
PERFORMER “PINK FLOYD”
INDEX 01 00:00:00
FILE “06 – Mudmen.wav” WAVE
TRACK 06 AUDIO
TITLE “Mudmen”
PERFORMER “PINK FLOYD”
INDEX 01 00:00:00
FILE “07 – Childhood’s End.wav” WAVE
TRACK 07 AUDIO
TITLE “Childhood’s End”
PERFORMER “PINK FLOYD”
INDEX 01 00:00:00
FILE “08 – Free Four.wav” WAVE
TRACK 08 AUDIO
TITLE “Free Four”
PERFORMER “PINK FLOYD”
INDEX 01 00:00:00
FILE “09 – Stay.wav” WAVE
TRACK 09 AUDIO
TITLE “Stay”
PERFORMER “PINK FLOYD”
INDEX 01 00:00:00
FILE “10 – Absolutely Curtains.wav” WAVE
TRACK 10 AUDIO
TITLE “Absolutely Curtains”
PERFORMER “PINK FLOYD”
INDEX 01 00:00:00

Leave a Reply

Your email address will not be published. Required fields are marked *

Enter the text from the image below
 

This site uses Akismet to reduce spam. Learn how your comment data is processed.