Pink Floyd – More (Remastered)




Artist: Pink Floyd
Year: 1969/2011
Genre: Rock
Notes: Discogs
Add. Notes: Remastered
Encoder: FLAC
Bitrate: ~700 kBit/s (44.1 kHz/16 Bit/s)
Size: 321 MB
Password: “slam” (without ” “)


http://www.share-online.biz/dl/FFVHDLPPSEH
http://www.share-online.biz/dl/S5VHDLPPKK8
https://rapidgator.net/file/ca55f6c9f8496e13f3308a5c900bc414/PiFl-Mor.part1.rar
https://rapidgator.net/file/48a5a36a963829b0b5824e5fb2284d68/PiFl-Mor.part2.rar
https://uploadever.com/1r3cy875vbi6
https://uploadever.com/uiqxvmui2n63

Onlinestatus: Turbobit.net Rapidgator.net Uploadever.com

Tracklist:

1 - Cirrus Minor - 5:15
2 - The Nile Song - 3:26
3 - Crying Song - 3:34
4 - Up The Khyber - 2:13
5 - Green Is The Colour - 2:59
6 - Cymbaline - 4:50
7 - Party Sequence - 1:10
8 - Main Theme - 5:32
9 - Ibiza Bar - 3:17
10 - More Blues - 2:12
11 - Quicksilver - 7:11
12 - A Spanish Piece - 1:05
13 - Dramatic Theme - 2:16

EAC-Log, CUE-Sheed & NFO:

Click to open spoiler
Exact Audio Copy V0.99 prebeta 5 from 4. May 2009

EAC extraction logfile from 3. October 2011, 7:06

Pink Floyd / More (Discovery Box 2011)

Used drive : SONY CDRW/DVD CRX835E Adapter: 4 ID: 0

Read mode : Secure
Utilize accurate stream : Yes
Defeat audio cache : Yes
Make use of C2 pointers : No

Read offset correction : 6
Overread into Lead-In and Lead-Out : No
Fill up missing offset samples with silence : Yes
Delete leading and trailing silent blocks : No
Null samples used in CRC calculations : Yes
Used interface : Native Win32 interface for Win NT & 2000
Gap handling : Appended to previous track

Used output format : User Defined Encoder
Selected bitrate : 1024 kBit/s
Quality : High
Add ID3 tag : No
Command line compressor : C:\Program Files (x86)\Exact Audio Copy\Flac\flac.exe
Additional command line options : -8 -V -T “ARTIST=%a” -T “TITLE=%t” -T “ALBUM=%g” -T “DATE=%y” -T “TRACKNUMBER=%n” -T “TOTALTRACKS=%x” -T “GENRE=%m” -T “ALBUM ARTIST=%v” -T “ALBUMARTIST=%v” -T “COMMENT=EAC V0.99 prebeta 5, Secure Mode, Test & Copy, Accurat

TOC of the extracted CD

Track | Start | Length | Start sector | End sector
———————————————————
1 | 0:00.00 | 5:18.55 | 0 | 23904
2 | 5:18.55 | 3:26.72 | 23905 | 39426
3 | 8:45.52 | 3:33.23 | 39427 | 55424
4 | 12:19.00 | 2:12.59 | 55425 | 65383
5 | 14:31.59 | 2:58.68 | 65384 | 78801
6 | 17:30.52 | 4:49.66 | 78802 | 100542
7 | 22:20.43 | 1:08.72 | 100543 | 105714
8 | 23:29.40 | 5:26.33 | 105715 | 130197
9 | 28:55.73 | 3:19.22 | 130198 | 145144
10 | 32:15.20 | 2:12.41 | 145145 | 155085
11 | 34:27.61 | 7:13.48 | 155086 | 187608
12 | 41:41.34 | 1:05.21 | 187609 | 192504
13 | 42:46.55 | 2:18.06 | 192505 | 202860

Track 1

Filename C:\Losslessworld.info\Pink Floyd – The Discovery Studio Album Box Set (2011) [FLAC] { Japan, Remastered, 16 CDs, EMI, TOCP-71147-62 }\Pink Floyd – More (1969) [FLAC] { TOCP-71133 }\01 – Cirrus Minor.wav

Pre-gap length 0:00:02.00

Peak level 80.0 %
Track quality 100.0 %
Test CRC 17E03E30
Copy CRC 17E03E30
Copy OK

Track 2

Filename C:\Losslessworld.info\Pink Floyd – The Discovery Studio Album Box Set (2011) [FLAC] { Japan, Remastered, 16 CDs, EMI, TOCP-71147-62 }\Pink Floyd – More (1969) [FLAC] { TOCP-71133 }\02 – The Nile Song.wav

Peak level 100.0 %
Track quality 100.0 %
Test CRC E79CABAD
Copy CRC E79CABAD
Copy OK

Track 3

Filename C:\Losslessworld.info\Pink Floyd – The Discovery Studio Album Box Set (2011) [FLAC] { Japan, Remastered, 16 CDs, EMI, TOCP-71147-62 }\Pink Floyd – More (1969) [FLAC] { TOCP-71133 }\03 – Crying Song.wav

Peak level 52.3 %
Track quality 100.0 %
Test CRC 2A8ECDCF
Copy CRC 2A8ECDCF
Copy OK

Track 4

Filename C:\Losslessworld.info\Pink Floyd – The Discovery Studio Album Box Set (2011) [FLAC] { Japan, Remastered, 16 CDs, EMI, TOCP-71147-62 }\Pink Floyd – More (1969) [FLAC] { TOCP-71133 }\04 – Up The Khyber.wav

Peak level 93.9 %
Track quality 100.0 %
Test CRC 17DEC320
Copy CRC 17DEC320
Copy OK

Track 5

Filename C:\Losslessworld.info\Pink Floyd – The Discovery Studio Album Box Set (2011) [FLAC] { Japan, Remastered, 16 CDs, EMI, TOCP-71147-62 }\Pink Floyd – More (1969) [FLAC] { TOCP-71133 }\05 – Green Is The Colour.wav

Peak level 81.5 %
Track quality 100.0 %
Test CRC DF1A0DB8
Copy CRC DF1A0DB8
Copy OK

Track 6

Filename C:\Losslessworld.info\Pink Floyd – The Discovery Studio Album Box Set (2011) [FLAC] { Japan, Remastered, 16 CDs, EMI, TOCP-71147-62 }\Pink Floyd – More (1969) [FLAC] { TOCP-71133 }\06 – Cymbaline.wav

Peak level 94.7 %
Track quality 99.9 %
Test CRC 6AE40171
Copy CRC 6AE40171
Copy OK

Track 7

Filename C:\Losslessworld.info\Pink Floyd – The Discovery Studio Album Box Set (2011) [FLAC] { Japan, Remastered, 16 CDs, EMI, TOCP-71147-62 }\Pink Floyd – More (1969) [FLAC] { TOCP-71133 }\07 – Party Sequence.wav

Peak level 81.0 %
Track quality 100.0 %
Test CRC F41E3CF7
Copy CRC F41E3CF7
Copy OK

Track 8

Filename C:\Losslessworld.info\Pink Floyd – The Discovery Studio Album Box Set (2011) [FLAC] { Japan, Remastered, 16 CDs, EMI, TOCP-71147-62 }\Pink Floyd – More (1969) [FLAC] { TOCP-71133 }\08 – Main Theme.wav

Peak level 100.0 %
Track quality 99.9 %
Test CRC 7EBF6607
Copy CRC 7EBF6607
Copy OK

Track 9

Filename C:\Losslessworld.info\Pink Floyd – The Discovery Studio Album Box Set (2011) [FLAC] { Japan, Remastered, 16 CDs, EMI, TOCP-71147-62 }\Pink Floyd – More (1969) [FLAC] { TOCP-71133 }\09 – Ibiza Bar.wav

Peak level 100.0 %
Track quality 100.0 %
Test CRC 7579EB7A
Copy CRC 7579EB7A
Copy OK

Track 10

Filename C:\Losslessworld.info\Pink Floyd – The Discovery Studio Album Box Set (2011) [FLAC] { Japan, Remastered, 16 CDs, EMI, TOCP-71147-62 }\Pink Floyd – More (1969) [FLAC] { TOCP-71133 }\10 – More Blues.wav

Peak level 100.0 %
Track quality 100.0 %
Test CRC 9E53B0F7
Copy CRC 9E53B0F7
Copy OK

Track 11

Filename C:\Losslessworld.info\Pink Floyd – The Discovery Studio Album Box Set (2011) [FLAC] { Japan, Remastered, 16 CDs, EMI, TOCP-71147-62 }\Pink Floyd – More (1969) [FLAC] { TOCP-71133 }\11 – Quicksilver.wav

Peak level 69.1 %
Track quality 99.9 %
Test CRC 9D3CD66F
Copy CRC 9D3CD66F
Copy OK

Track 12

Filename C:\Losslessworld.info\Pink Floyd – The Discovery Studio Album Box Set (2011) [FLAC] { Japan, Remastered, 16 CDs, EMI, TOCP-71147-62 }\Pink Floyd – More (1969) [FLAC] { TOCP-71133 }\12 – A Spanish Piece.wav

Peak level 94.1 %
Track quality 100.0 %
Test CRC 233F8E3A
Copy CRC 233F8E3A
Copy OK

Track 13

Filename C:\Losslessworld.info\Pink Floyd – The Discovery Studio Album Box Set (2011) [FLAC] { Japan, Remastered, 16 CDs, EMI, TOCP-71147-62 }\Pink Floyd – More (1969) [FLAC] { TOCP-71133 }\13 – Dramatic Theme.wav

Peak level 97.1 %
Track quality 100.0 %
Test CRC 42E21BA9
Copy CRC 42E21BA9
Copy OK

No errors occurred

End of status report

REM GENRE “Psychedelic Rock”
REM DATE 1969
REM DISCID A20A900D
REM COMMENT “ExactAudioCopy v0.99pb5”
PERFORMER “Pink Floyd”
TITLE “More (Discovery Box 2011)”
FILE “01 – Cirrus Minor.wav” WAVE
TRACK 01 AUDIO
TITLE “Cirrus Minor”
PERFORMER “Pink Floyd”
INDEX 01 00:00:00
FILE “02 – The Nile Song.wav” WAVE
TRACK 02 AUDIO
TITLE “The Nile Song”
PERFORMER “Pink Floyd”
INDEX 01 00:00:00
FILE “03 – Crying Song.wav” WAVE
TRACK 03 AUDIO
TITLE “Crying Song”
PERFORMER “Pink Floyd”
INDEX 01 00:00:00
FILE “04 – Up The Khyber.wav” WAVE
TRACK 04 AUDIO
TITLE “Up The Khyber”
PERFORMER “Pink Floyd”
INDEX 01 00:00:00
FILE “05 – Green Is The Colour.wav” WAVE
TRACK 05 AUDIO
TITLE “Green Is The Colour”
PERFORMER “Pink Floyd”
INDEX 01 00:00:00
FILE “06 – Cymbaline.wav” WAVE
TRACK 06 AUDIO
TITLE “Cymbaline”
PERFORMER “Pink Floyd”
INDEX 01 00:00:00
FILE “07 – Party Sequence.wav” WAVE
TRACK 07 AUDIO
TITLE “Party Sequence”
PERFORMER “Pink Floyd”
INDEX 01 00:00:00
FILE “08 – Main Theme.wav” WAVE
TRACK 08 AUDIO
TITLE “Main Theme”
PERFORMER “Pink Floyd”
INDEX 01 00:00:00
FILE “09 – Ibiza Bar.wav” WAVE
TRACK 09 AUDIO
TITLE “Ibiza Bar”
PERFORMER “Pink Floyd”
INDEX 01 00:00:00
FILE “10 – More Blues.wav” WAVE
TRACK 10 AUDIO
TITLE “More Blues”
PERFORMER “Pink Floyd”
INDEX 01 00:00:00
FILE “11 – Quicksilver.wav” WAVE
TRACK 11 AUDIO
TITLE “Quicksilver”
PERFORMER “Pink Floyd”
INDEX 01 00:00:00
FILE “12 – A Spanish Piece.wav” WAVE
TRACK 12 AUDIO
TITLE “A Spanish Piece”
PERFORMER “Pink Floyd”
INDEX 01 00:00:00
FILE “13 – Dramatic Theme.wav” WAVE
TRACK 13 AUDIO
TITLE “Dramatic Theme”
PERFORMER “Pink Floyd”
INDEX 01 00:00:00

Leave a Reply

Your email address will not be published. Required fields are marked *

Enter the text from the image below
 

This site uses Akismet to reduce spam. Learn how your comment data is processed.