Pink Floyd – Meddle (Remastered)




Artist: Pink Floyd
Year: 1971/1994
Genre: Rock
Notes: Discogs
Add. Notes: Remastered
Encoder: FLAC
Bitrate: ~700 kBit/s (44.1 kHz/16 Bit/s)
Size: 339 MB
Password: “slam” (without ” “)


http://www.share-online.biz/dl/57QHDLPP37L
http://www.share-online.biz/dl/QSGHDLPPKI0
https://rapidgator.net/file/c86c0b2df4948fec46f32cbd97c804cb/PiFl-Med.part1.rar
https://rapidgator.net/file/1570373588ef719a0b6607c0f0d1fc67/PiFl-Med.part2.rar
https://ayefiles.com/vdgef6s0f4ke/PiFl-Med.part1.rar.html
https://ayefiles.com/w43n3w9lhry0/PiFl-Med.part2.rar.html

Onlinestatus: Turbobit.net Rapidgator.net AyeFiles.com

Tracklist:

1 - One Of These Days - 5:57
2 - A Pillow Of Winds - 5:07
3 - Fearless - 6:05
4 - San Tropez - 3:40
5 - Seamus - 2:13
6 - Echoes - 23:31

EAC-Log, CUE-Sheed & NFO:

Click to open spoiler
Exact Audio Copy V0.99 prebeta 5 from 4. May 2009

EAC extraction logfile from 3. October 2011, 6:20

PINK FLOYD / MEDDLE

Used drive : SONY CDRW/DVD CRX835E Adapter: 4 ID: 0

Read mode : Secure
Utilize accurate stream : Yes
Defeat audio cache : Yes
Make use of C2 pointers : No

Read offset correction : 6
Overread into Lead-In and Lead-Out : No
Fill up missing offset samples with silence : Yes
Delete leading and trailing silent blocks : No
Null samples used in CRC calculations : Yes
Used interface : Native Win32 interface for Win NT & 2000
Gap handling : Appended to previous track

Used output format : User Defined Encoder
Selected bitrate : 1024 kBit/s
Quality : High
Add ID3 tag : No
Command line compressor : C:\Program Files (x86)\Exact Audio Copy\Flac\flac.exe
Additional command line options : -8 -V -T “ARTIST=%a” -T “TITLE=%t” -T “ALBUM=%g” -T “DATE=%y” -T “TRACKNUMBER=%n” -T “TOTALTRACKS=%x” -T “GENRE=%m” -T “ALBUM ARTIST=%v” -T “ALBUMARTIST=%v” -T “COMMENT=EAC V0.99 prebeta 5, Secure Mode, Test & Copy, Accurat

TOC of the extracted CD

Track | Start | Length | Start sector | End sector
———————————————————
1 | 0:00.00 | 5:55.49 | 0 | 26673
2 | 5:55.49 | 5:12.60 | 26674 | 50133
3 | 11:08.34 | 6:08.02 | 50134 | 77735
4 | 17:16.36 | 3:43.05 | 77736 | 94465
5 | 20:59.41 | 2:14.63 | 94466 | 104578
6 | 23:14.29 | 23:34.67 | 104579 | 210695

Track 1

Filename C:\Losslessworld.info\Pink Floyd – The Discovery Studio Album Box Set (2011) [FLAC] { Japan, Remastered, 16 CDs, EMI, TOCP-71147-62 }\Pink Floyd – Meddle (1971) [FLAC] { TOCP-71137 }\01 – One Of These Days.wav

Pre-gap length 0:00:02.00

Peak level 100.0 %
Track quality 99.9 %
Test CRC 2CBE8D05
Copy CRC 2CBE8D05
Copy OK

Track 2

Filename C:\Losslessworld.info\Pink Floyd – The Discovery Studio Album Box Set (2011) [FLAC] { Japan, Remastered, 16 CDs, EMI, TOCP-71147-62 }\Pink Floyd – Meddle (1971) [FLAC] { TOCP-71137 }\02 – A Pillow Of Winds.wav

Peak level 89.7 %
Track quality 99.9 %
Test CRC 7D7663AE
Copy CRC 7D7663AE
Copy OK

Track 3

Filename C:\Losslessworld.info\Pink Floyd – The Discovery Studio Album Box Set (2011) [FLAC] { Japan, Remastered, 16 CDs, EMI, TOCP-71147-62 }\Pink Floyd – Meddle (1971) [FLAC] { TOCP-71137 }\03 – Fearless.wav

Peak level 100.0 %
Track quality 100.0 %
Test CRC 6AC729B8
Copy CRC 6AC729B8
Copy OK

Track 4

Filename C:\Losslessworld.info\Pink Floyd – The Discovery Studio Album Box Set (2011) [FLAC] { Japan, Remastered, 16 CDs, EMI, TOCP-71147-62 }\Pink Floyd – Meddle (1971) [FLAC] { TOCP-71137 }\04 – San Tropez.wav

Peak level 100.0 %
Track quality 100.0 %
Test CRC 52E059DA
Copy CRC 52E059DA
Copy OK

Track 5

Filename C:\Losslessworld.info\Pink Floyd – The Discovery Studio Album Box Set (2011) [FLAC] { Japan, Remastered, 16 CDs, EMI, TOCP-71147-62 }\Pink Floyd – Meddle (1971) [FLAC] { TOCP-71137 }\05 – Seamus.wav

Peak level 70.1 %
Track quality 100.0 %
Test CRC A8ADC100
Copy CRC A8ADC100
Copy OK

Track 6

Filename C:\Losslessworld.info\Pink Floyd – The Discovery Studio Album Box Set (2011) [FLAC] { Japan, Remastered, 16 CDs, EMI, TOCP-71147-62 }\Pink Floyd – Meddle (1971) [FLAC] { TOCP-71137 }\06 – Echoes.wav

Peak level 100.0 %
Track quality 100.0 %
Test CRC CB0EB6AE
Copy CRC CB0EB6AE
Copy OK

No errors occurred

End of status report

Leave a Reply

Your email address will not be published. Required fields are marked *

Enter the text from the image below
 

This site uses Akismet to reduce spam. Learn how your comment data is processed.