Pink Floyd – Atom Heart Mother (Japanese Edition)




Artist: Pink Floyd
Year: 1970
Genre: Rock
Notes: Discogs
Add. Notes: Japanese Edition
Encoder: FLAC
Bitrate: ~800 kBit/s (44.1 kHz/16 Bit/s)
Size: 371,36 MB
Password: “slam” (without ” “)


Crypted via FileCrypt.cc:

.

Crypted via Relink.to:

Tracklist:

Atom Heart Mother 	(23:45)
1.a 	Father's Shout 	
1.b 	Breast Milky 	
1.c 	Mother Fore 	
1.d 	Funky Dung 	
1.e 	Mind Your Throats Please 	
1.f 	Remergence 	
2 	If 	4:31
3 	Summer '68 	5:28
4 	Fat Old Sun 	5:23
Alan's Psychedelic Breakfast 	(13:01)
5.a 	Rise And Shine 	
5.b 	Sunny Side Up 	
5.c 	Morning Glory

EAC-Log, CUE-Sheed & NFO:

Click to open spoiler
Exact Audio Copy V0.99 prebeta 5 from 4. May 2009

EAC extraction logfile from 3. October 2011, 5:31

Pink Floyd / Atom Heart Mother (Remastered)

Used drive : SONY CDRW/DVD CRX835E Adapter: 4 ID: 0

Read mode : Secure
Utilize accurate stream : Yes
Defeat audio cache : Yes
Make use of C2 pointers : No

Read offset correction : 6
Overread into Lead-In and Lead-Out : No
Fill up missing offset samples with silence : Yes
Delete leading and trailing silent blocks : No
Null samples used in CRC calculations : Yes
Used interface : Native Win32 interface for Win NT & 2000
Gap handling : Appended to previous track

Used output format : User Defined Encoder
Selected bitrate : 1024 kBit/s
Quality : High
Add ID3 tag : No
Command line compressor : C:\Program Files (x86)\Exact Audio Copy\Flac\flac.exe
Additional command line options : -8 -V -T “ARTIST=%a” -T “TITLE=%t” -T “ALBUM=%g” -T “DATE=%y” -T “TRACKNUMBER=%n” -T “TOTALTRACKS=%x” -T “GENRE=%m” -T “ALBUM ARTIST=%v” -T “ALBUMARTIST=%v” -T “COMMENT=EAC V0.99 prebeta 5, Secure Mode, Test & Copy, Accurat

TOC of the extracted CD

Track | Start | Length | Start sector | End sector
———————————————————
1 | 0:00.00 | 23:42.26 | 0 | 106675
2 | 23:42.26 | 4:30.58 | 106676 | 126983
3 | 28:13.09 | 5:28.72 | 126984 | 151655
4 | 33:42.06 | 5:23.56 | 151656 | 175936
5 | 39:05.62 | 13:01.11 | 175937 | 234522

Track 1

Filename C:\Losslessworld.info\Pink Floyd – The Discovery Studio Album Box Set (2011) [FLAC] { Japan, Remastered, 16 CDs, EMI, TOCP-71147-62 }\Pink Floyd – Atom Heart Mother (1970) [FLAC] { TOCP-71136 }\01 – Atom Heart Mother- Father’s Shout,Breast Mil

Pre-gap length 0:00:02.00

Peak level 100.0 %
Track quality 100.0 %
Test CRC BFB08B37
Copy CRC BFB08B37
Copy OK

Track 2

Filename C:\Losslessworld.info\Pink Floyd – The Discovery Studio Album Box Set (2011) [FLAC] { Japan, Remastered, 16 CDs, EMI, TOCP-71147-62 }\Pink Floyd – Atom Heart Mother (1970) [FLAC] { TOCP-71136 }\02 – If.wav

Peak level 90.1 %
Track quality 100.0 %
Test CRC 14EAA18B
Copy CRC 14EAA18B
Copy OK

Track 3

Filename C:\Losslessworld.info\Pink Floyd – The Discovery Studio Album Box Set (2011) [FLAC] { Japan, Remastered, 16 CDs, EMI, TOCP-71147-62 }\Pink Floyd – Atom Heart Mother (1970) [FLAC] { TOCP-71136 }\03 – Summer ’68.wav

Peak level 100.0 %
Track quality 100.0 %
Test CRC C1B89C4D
Copy CRC C1B89C4D
Copy OK

Track 4

Filename C:\Losslessworld.info\Pink Floyd – The Discovery Studio Album Box Set (2011) [FLAC] { Japan, Remastered, 16 CDs, EMI, TOCP-71147-62 }\Pink Floyd – Atom Heart Mother (1970) [FLAC] { TOCP-71136 }\04 – Fat Old Sun.wav

Peak level 100.0 %
Track quality 99.9 %
Test CRC 01C4E076
Copy CRC 01C4E076
Copy OK

Track 5

Filename C:\Losslessworld.info\Pink Floyd – The Discovery Studio Album Box Set (2011) [FLAC] { Japan, Remastered, 16 CDs, EMI, TOCP-71147-62 }\Pink Floyd – Atom Heart Mother (1970) [FLAC] { TOCP-71136 }\05 – Alan’s Psychedelic Breakfast- Rise And Shine

Peak level 100.0 %
Track quality 100.0 %
Test CRC E6184D29
Copy CRC E6184D29
Copy OK

No errors occurred

REM GENRE “Progressive Rock”
REM DATE 1970
REM DISCID 3A0C3605
REM COMMENT “ExactAudioCopy v0.99pb5”
PERFORMER “Pink Floyd”
TITLE “Atom Heart Mother (Remastered)”
FILE “01 – Atom Heart Mother- Father’s Shout,Breast Milky,Mother Fore,Funky Dung,Mind Your Throats Please,Remergence.wav” WAVE
TRACK 01 AUDIO
TITLE “Atom Heart Mother: Father’s Shout/Breast Milky/Mother Fore/Funky Dung/Mind Yo…”
PERFORMER “Pink Floyd”
INDEX 01 00:00:00
FILE “02 – If.wav” WAVE
TRACK 02 AUDIO
TITLE “If”
PERFORMER “Pink Floyd”
INDEX 01 00:00:00
FILE “03 – Summer ’68.wav” WAVE
TRACK 03 AUDIO
TITLE “Summer ’68”
PERFORMER “Pink Floyd”
INDEX 01 00:00:00
FILE “04 – Fat Old Sun.wav” WAVE
TRACK 04 AUDIO
TITLE “Fat Old Sun”
PERFORMER “Pink Floyd”
INDEX 01 00:00:00
FILE “05 – Alan’s Psychedelic Breakfast- Rise And Shine,Sunny Side Up,Morning Glory.wav” WAVE
TRACK 05 AUDIO
TITLE “Alan’s Psychedelic Breakfast: Rise And Shine/Sunny Side Up/Morning Glory”
PERFORMER “Pink Floyd”
INDEX 01 00:00:00

End of status report

Leave a Reply

Your email address will not be published. Required fields are marked *

Enter the text from the image below
 

This site uses Akismet to reduce spam. Learn how your comment data is processed.