Pink Floyd – Animals (Remastered)




Artist: Pink Floyd
Year: 1977/2011
Genre: Rock
Notes: Discogs
Add. Notes: Remastered
Encoder: FLAC
Bitrate: ~800 kBit/s (44.1 kHz/16 Bit/s)
Size: 334,17 MB
Password: “slam” (without ” “)


Crypted via FileCrypt.cc:

.

Crypted via Relink.to:

Tracklist:

1 - Pigs On The Wing 1 - 1:26
2 - Dogs - 17:05
3 - Pigs (Three Different Ones) - 11:26
4 - Sheep - 10:19
5 - Pigs On The Wing 2 - 1:29

EAC-Log, CUE-Sheed & NFO:

Click to open spoiler
Exact Audio Copy V0.99 prebeta 5 from 4. May 2009

EAC extraction logfile from 3. October 2011, 4:46

Pink Floyd / ANIMALS

Used drive : SONY CDRW/DVD CRX835E Adapter: 4 ID: 0

Read mode : Secure
Utilize accurate stream : Yes
Defeat audio cache : Yes
Make use of C2 pointers : No

Read offset correction : 6
Overread into Lead-In and Lead-Out : No
Fill up missing offset samples with silence : Yes
Delete leading and trailing silent blocks : No
Null samples used in CRC calculations : Yes
Used interface : Native Win32 interface for Win NT & 2000
Gap handling : Appended to previous track

Used output format : User Defined Encoder
Selected bitrate : 1024 kBit/s
Quality : High
Add ID3 tag : No
Command line compressor : C:\Program Files (x86)\Exact Audio Copy\Flac\flac.exe
Additional command line options : -8 -V -T “ARTIST=%a” -T “TITLE=%t” -T “ALBUM=%g” -T “DATE=%y” -T “TRACKNUMBER=%n” -T “TOTALTRACKS=%x” -T “GENRE=%m” -T “ALBUM ARTIST=%v” -T “ALBUMARTIST=%v” -T “COMMENT=EAC V0.99 prebeta 5, Secure Mode, Test & Copy, Accurat

TOC of the extracted CD

Track | Start | Length | Start sector | End sector
———————————————————
1 | 0:00.00 | 1:25.60 | 0 | 6434
2 | 1:25.60 | 17:05.21 | 6435 | 83330
3 | 18:31.06 | 11:26.09 | 83331 | 134789
4 | 29:57.15 | 10:18.63 | 134790 | 181202
5 | 40:16.03 | 1:28.65 | 181203 | 187867

Track 1

Filename C:\Losslessworld.info\Pink Floyd – The Discovery Studio Album Box Set (2011) [FLAC] { Japan, Remastered, 16 CDs, EMI, TOCP-71147-62 }\Pink Floyd – Animals (1977) [FLAC] { TOCP-71141 }\01 – Pigs On The Wing 1.wav

Pre-gap length 0:00:02.00

Peak level 52.8 %
Track quality 100.0 %
Test CRC 908B133D
Copy CRC 908B133D
Copy OK

Track 2

Filename C:\Losslessworld.info\Pink Floyd – The Discovery Studio Album Box Set (2011) [FLAC] { Japan, Remastered, 16 CDs, EMI, TOCP-71147-62 }\Pink Floyd – Animals (1977) [FLAC] { TOCP-71141 }\02 – Dogs.wav

Peak level 100.0 %
Track quality 100.0 %
Test CRC 11AFFEBC
Copy CRC 11AFFEBC
Copy OK

Track 3

Filename C:\Losslessworld.info\Pink Floyd – The Discovery Studio Album Box Set (2011) [FLAC] { Japan, Remastered, 16 CDs, EMI, TOCP-71147-62 }\Pink Floyd – Animals (1977) [FLAC] { TOCP-71141 }\03 – Pigs (Three Different Ones).wav

Peak level 100.0 %
Track quality 100.0 %
Test CRC 3B6832D4
Copy CRC 3B6832D4
Copy OK

Track 4

Filename C:\Losslessworld.info\Pink Floyd – The Discovery Studio Album Box Set (2011) [FLAC] { Japan, Remastered, 16 CDs, EMI, TOCP-71147-62 }\Pink Floyd – Animals (1977) [FLAC] { TOCP-71141 }\04 – Sheep.wav

Peak level 100.0 %
Track quality 100.0 %
Test CRC 0FCD622A
Copy CRC 0FCD622A
Copy OK

Track 5

Filename C:\Losslessworld.info\Pink Floyd – The Discovery Studio Album Box Set (2011) [FLAC] { Japan, Remastered, 16 CDs, EMI, TOCP-71147-62 }\Pink Floyd – Animals (1977) [FLAC] { TOCP-71141 }\05 – Pigs On The Wing 2.wav

Peak level 50.6 %
Track quality 100.0 %
Test CRC AAFF0A8A
Copy CRC AAFF0A8A
Copy OK

No errors occurred

End of status report

REM GENRE “Progressive Rock”
REM DATE 1977
REM DISCID 4009C805
REM COMMENT “ExactAudioCopy v0.99pb5”
PERFORMER “Pink Floyd”
TITLE “ANIMALS”
FILE “01 – Pigs On The Wing 1.wav” WAVE
TRACK 01 AUDIO
TITLE “Pigs On The Wing 1”
PERFORMER “Pink Floyd”
INDEX 01 00:00:00
FILE “02 – Dogs.wav” WAVE
TRACK 02 AUDIO
TITLE “Dogs”
PERFORMER “Pink Floyd”
INDEX 01 00:00:00
FILE “03 – Pigs (Three Different Ones).wav” WAVE
TRACK 03 AUDIO
TITLE “Pigs (Three Different Ones)”
PERFORMER “Pink Floyd”
INDEX 01 00:00:00
FILE “04 – Sheep.wav” WAVE
TRACK 04 AUDIO
TITLE “Sheep”
PERFORMER “Pink Floyd”
INDEX 01 00:00:00
FILE “05 – Pigs On The Wing 2.wav” WAVE
TRACK 05 AUDIO
TITLE “Pigs On The Wing 2”
PERFORMER “Pink Floyd”
INDEX 01 00:00:00

Leave a Reply

Your email address will not be published. Required fields are marked *

Enter the text from the image below
 

This site uses Akismet to reduce spam. Learn how your comment data is processed.