Pink Floyd – A Saucerful Of Secrets (Remastered)




Artist: Pink Floyd
Year: 1968/2011
Genre: Rock
Notes: Discogs
Add. Notes: Remastered
Encoder: FLAC
Bitrate: ~800 kBit/s (44.1 kHz/16 Bit/s)
Size: 324,08 MB
Password: “slam” (without ” “)


Crypted via FileCrypt.cc:

.

Crypted via Relink.to:

Tracklist:

1 - Let There Be More Light - 5:38
2 - Remember A Day - 4:32
3 - Set The Controls For The Heart Of The Sun - 5:27
4 - Corporal Clegg - 4:12
5 - A Saucerful Of Secrets - 11:56
6 - See Saw - 4:36
7 - Jugband Blues - 3:00

EAC-Log, CUE-Sheed & NFO:

Click to open spoiler
Exact Audio Copy V0.99 prebeta 5 from 4. May 2009

EAC extraction logfile from 3. October 2011, 3:18

PINK FLOYD / A SAUCERFUL OF SECRETS

Used drive : SONY CDRW/DVD CRX835E Adapter: 4 ID: 0

Read mode : Secure
Utilize accurate stream : Yes
Defeat audio cache : Yes
Make use of C2 pointers : No

Read offset correction : 6
Overread into Lead-In and Lead-Out : No
Fill up missing offset samples with silence : Yes
Delete leading and trailing silent blocks : No
Null samples used in CRC calculations : Yes
Used interface : Native Win32 interface for Win NT & 2000
Gap handling : Appended to previous track

Used output format : User Defined Encoder
Selected bitrate : 1024 kBit/s
Quality : High
Add ID3 tag : No
Command line compressor : C:\Program Files (x86)\Exact Audio Copy\Flac\flac.exe
Additional command line options : -8 -V -T “ARTIST=%a” -T “TITLE=%t” -T “ALBUM=%g” -T “DATE=%y” -T “TRACKNUMBER=%n” -T “TOTALTRACKS=%x” -T “GENRE=%m” -T “ALBUM ARTIST=%v” -T “ALBUMARTIST=%v” -T “COMMENT=EAC V0.99 prebeta 5, Secure Mode, Test & Copy, Accurat

TOC of the extracted CD

Track | Start | Length | Start sector | End sector
———————————————————
1 | 0:00.00 | 5:38.09 | 0 | 25358
2 | 5:38.09 | 4:32.64 | 25359 | 45822
3 | 10:10.73 | 5:27.74 | 45823 | 70421
4 | 15:38.72 | 4:12.38 | 70422 | 89359
5 | 19:51.35 | 11:56.52 | 89360 | 143111
6 | 31:48.12 | 4:36.64 | 143112 | 163875
7 | 36:25.01 | 3:00.41 | 163876 | 177416

Track 1

Filename C:\Losslessworld.info\Pink Floyd – The Discovery Studio Album Box Set (2011) [FLAC] { Japan, Remastered, 16 CDs, EMI, TOCP-71147-62 }\Pink Floyd – A Saucerful Of Secrets (1968) [FLAC] { TOCP-71132 }\01 – Let There Be More Light.wav

Pre-gap length 0:00:02.00

Peak level 100.0 %
Track quality 100.0 %
Test CRC 69949504
Copy CRC 69949504
Copy OK

Track 2

Filename C:\Losslessworld.info\Pink Floyd – The Discovery Studio Album Box Set (2011) [FLAC] { Japan, Remastered, 16 CDs, EMI, TOCP-71147-62 }\Pink Floyd – A Saucerful Of Secrets (1968) [FLAC] { TOCP-71132 }\02 – Remember A Day.wav

Peak level 100.0 %
Track quality 100.0 %
Test CRC 6A168567
Copy CRC 6A168567
Copy OK

Track 3

Filename C:\Losslessworld.info\Pink Floyd – The Discovery Studio Album Box Set (2011) [FLAC] { Japan, Remastered, 16 CDs, EMI, TOCP-71147-62 }\Pink Floyd – A Saucerful Of Secrets (1968) [FLAC] { TOCP-71132 }\03 – Set The Controls For The Heart Of The S

Peak level 100.0 %
Track quality 100.0 %
Test CRC FA8E003A
Copy CRC FA8E003A
Copy OK

Track 4

Filename C:\Losslessworld.info\Pink Floyd – The Discovery Studio Album Box Set (2011) [FLAC] { Japan, Remastered, 16 CDs, EMI, TOCP-71147-62 }\Pink Floyd – A Saucerful Of Secrets (1968) [FLAC] { TOCP-71132 }\04 – Corporal Clegg.wav

Peak level 100.0 %
Track quality 100.0 %
Test CRC C66BE561
Copy CRC C66BE561
Copy OK

Track 5

Filename C:\Losslessworld.info\Pink Floyd – The Discovery Studio Album Box Set (2011) [FLAC] { Japan, Remastered, 16 CDs, EMI, TOCP-71147-62 }\Pink Floyd – A Saucerful Of Secrets (1968) [FLAC] { TOCP-71132 }\05 – A Saucerful Of Secrets.wav

Peak level 100.0 %
Track quality 100.0 %
Test CRC DA977838
Copy CRC DA977838
Copy OK

Track 6

Filename C:\Losslessworld.info\Pink Floyd – The Discovery Studio Album Box Set (2011) [FLAC] { Japan, Remastered, 16 CDs, EMI, TOCP-71147-62 }\Pink Floyd – A Saucerful Of Secrets (1968) [FLAC] { TOCP-71132 }\06 – See-Saw.wav

Peak level 100.0 %
Track quality 100.0 %
Test CRC A99A9B07
Copy CRC A99A9B07
Copy OK

Track 7

Filename C:\Losslessworld.info\Pink Floyd – The Discovery Studio Album Box Set (2011) [FLAC] { Japan, Remastered, 16 CDs, EMI, TOCP-71147-62 }\Pink Floyd – A Saucerful Of Secrets (1968) [FLAC] { TOCP-71132 }\07 – Jugband Blues.wav

Peak level 100.0 %
Track quality 100.0 %
Test CRC B238E7DF
Copy CRC B238E7DF
Copy OK

No errors occurred

End of status report

REM GENRE “Psychedelic Rock”
REM DATE 1968
REM DISCID 4A093D07
REM COMMENT “ExactAudioCopy v0.99pb5”
PERFORMER “PINK FLOYD”
TITLE “A SAUCERFUL OF SECRETS”
FILE “01 – Let There Be More Light.wav” WAVE
TRACK 01 AUDIO
TITLE “Let There Be More Light”
PERFORMER “PINK FLOYD”
INDEX 01 00:00:00
FILE “02 – Remember A Day.wav” WAVE
TRACK 02 AUDIO
TITLE “Remember A Day”
PERFORMER “PINK FLOYD”
INDEX 01 00:00:00
FILE “03 – Set The Controls For The Heart Of The Sun.wav” WAVE
TRACK 03 AUDIO
TITLE “Set The Controls For The Heart Of The Sun”
PERFORMER “PINK FLOYD”
INDEX 01 00:00:00
FILE “04 – Corporal Clegg.wav” WAVE
TRACK 04 AUDIO
TITLE “Corporal Clegg”
PERFORMER “PINK FLOYD”
INDEX 01 00:00:00
FILE “05 – A Saucerful Of Secrets.wav” WAVE
TRACK 05 AUDIO
TITLE “A Saucerful Of Secrets”
PERFORMER “PINK FLOYD”
INDEX 01 00:00:00
FILE “06 – See-Saw.wav” WAVE
TRACK 06 AUDIO
TITLE “See-Saw”
PERFORMER “PINK FLOYD”
INDEX 01 00:00:00
FILE “07 – Jugband Blues.wav” WAVE
TRACK 07 AUDIO
TITLE “Jugband Blues”
PERFORMER “PINK FLOYD”
INDEX 01 00:00:00

Leave a Reply

Your email address will not be published. Required fields are marked *

Enter the text from the image below
 

This site uses Akismet to reduce spam. Learn how your comment data is processed.