Pink Floyd – A Momentary Lapse Of Reason (Limited Remastered Japanes Edition)




Artist: Pink Floyd
Year: 1987/2011
Genre: Rock
Notes: Discogs
Add. Notes: Limited Remastered Japanes Edition
Encoder: FLAC
Bitrate: ~800 kBit/s (44.1 kHz/16 Bit/s)
Size: 402,46 MB
Password: – not required –


Crypted via FileCrypt.cc:

.

Crypted via Relink.to:

Tracklist:

1 - Signs Of Life - 4:24
2 - Learning To Fly - 4:52
3 - The Dogs Of War - 6:04
4 - One Slip - 5:09
5 - On The Turning Away - 5:42
6 - Yet Another Movie - 6:13
7 - Round And Around - 1:13
8 - A New Machine (Part 1) - 1:46
9 - Terminal Frost - 6:15
10 - A New Machine (Part 2) - 0:39
11 - Sorrow - 8:47

EAC-Log, CUE-Sheed & NFO:

Click to open spoiler
Exact Audio Copy V0.99 prebeta 5 from 4. May 2009

EAC extraction logfile from 3. October 2011, 2:23

Pink Floyd / A Momentary Lapse Of Reason

Used drive : SONY CDRW/DVD CRX835E Adapter: 4 ID: 0

Read mode : Secure
Utilize accurate stream : Yes
Defeat audio cache : Yes
Make use of C2 pointers : No

Read offset correction : 6
Overread into Lead-In and Lead-Out : No
Fill up missing offset samples with silence : Yes
Delete leading and trailing silent blocks : No
Null samples used in CRC calculations : Yes
Used interface : Native Win32 interface for Win NT & 2000
Gap handling : Appended to previous track

Used output format : User Defined Encoder
Selected bitrate : 1024 kBit/s
Quality : High
Add ID3 tag : No
Command line compressor : C:\Program Files (x86)\Exact Audio Copy\Flac\flac.exe
Additional command line options : -8 -V -T “ARTIST=%a” -T “TITLE=%t” -T “ALBUM=%g” -T “DATE=%y” -T “TRACKNUMBER=%n” -T “TOTALTRACKS=%x” -T “GENRE=%m” -T “ALBUM ARTIST=%v” -T “ALBUMARTIST=%v” -T “COMMENT=EAC V0.99 prebeta 5, Secure Mode, Test & Copy, Accurat

TOC of the extracted CD

Track | Start | Length | Start sector | End sector
———————————————————
1 | 0:00.00 | 4:23.51 | 0 | 19775
2 | 4:23.51 | 4:52.07 | 19776 | 41682
3 | 9:15.58 | 6:03.52 | 41683 | 68959
4 | 15:19.35 | 5:08.51 | 68960 | 92110
5 | 20:28.11 | 5:41.50 | 92111 | 117735
6 | 26:09.61 | 6:13.00 | 117736 | 145710
7 | 32:22.61 | 1:13.15 | 145711 | 151200
8 | 33:36.01 | 1:45.71 | 151201 | 159146
9 | 35:21.72 | 6:15.32 | 159147 | 187303
10 | 41:37.29 | 0:39.01 | 187304 | 190229
11 | 42:16.30 | 8:46.69 | 190230 | 229748

Track 1

Filename C:\Losslessworld.info\Pink Floyd – The Discovery Studio Album Box Set (2011) [FLAC] { Japan, Remastered, 16 CDs, EMI, TOCP-71147-62 }\Pink Floyd – A Momentary Lapse Of Reason (1987) [FLAC] { TOCP-71145 }\01 – Signs Of Life.wav

Pre-gap length 0:00:02.00

Peak level 65.7 %
Track quality 99.9 %
Test CRC 89589586
Copy CRC 89589586
Copy OK

Track 2

Filename C:\Losslessworld.info\Pink Floyd – The Discovery Studio Album Box Set (2011) [FLAC] { Japan, Remastered, 16 CDs, EMI, TOCP-71147-62 }\Pink Floyd – A Momentary Lapse Of Reason (1987) [FLAC] { TOCP-71145 }\02 – Learning To Fly.wav

Peak level 77.8 %
Track quality 100.0 %
Test CRC FA78B6BE
Copy CRC FA78B6BE
Copy OK

Track 3

Filename C:\Losslessworld.info\Pink Floyd – The Discovery Studio Album Box Set (2011) [FLAC] { Japan, Remastered, 16 CDs, EMI, TOCP-71147-62 }\Pink Floyd – A Momentary Lapse Of Reason (1987) [FLAC] { TOCP-71145 }\03 – The Dogs Of War.wav

Peak level 75.8 %
Track quality 100.0 %
Test CRC 8E014D5D
Copy CRC 8E014D5D
Copy OK

Track 4

Filename C:\Losslessworld.info\Pink Floyd – The Discovery Studio Album Box Set (2011) [FLAC] { Japan, Remastered, 16 CDs, EMI, TOCP-71147-62 }\Pink Floyd – A Momentary Lapse Of Reason (1987) [FLAC] { TOCP-71145 }\04 – One Slip.wav

Peak level 76.3 %
Track quality 100.0 %
Test CRC CAD81CF5
Copy CRC CAD81CF5
Copy OK

Track 5

Filename C:\Losslessworld.info\Pink Floyd – The Discovery Studio Album Box Set (2011) [FLAC] { Japan, Remastered, 16 CDs, EMI, TOCP-71147-62 }\Pink Floyd – A Momentary Lapse Of Reason (1987) [FLAC] { TOCP-71145 }\05 – On The Turning Away.wav

Peak level 76.4 %
Track quality 100.0 %
Test CRC 763749E5
Copy CRC 763749E5
Copy OK

Track 6

Filename C:\Losslessworld.info\Pink Floyd – The Discovery Studio Album Box Set (2011) [FLAC] { Japan, Remastered, 16 CDs, EMI, TOCP-71147-62 }\Pink Floyd – A Momentary Lapse Of Reason (1987) [FLAC] { TOCP-71145 }\06 – Yet Another Movie.wav

Peak level 79.0 %
Track quality 100.0 %
Test CRC 8F2A8F3E
Copy CRC 8F2A8F3E
Copy OK

Track 7

Filename C:\Losslessworld.info\Pink Floyd – The Discovery Studio Album Box Set (2011) [FLAC] { Japan, Remastered, 16 CDs, EMI, TOCP-71147-62 }\Pink Floyd – A Momentary Lapse Of Reason (1987) [FLAC] { TOCP-71145 }\07 – Round And Around.wav

Peak level 75.5 %
Track quality 100.0 %
Test CRC 89BD9408
Copy CRC 89BD9408
Copy OK

Track 8

Filename C:\Losslessworld.info\Pink Floyd – The Discovery Studio Album Box Set (2011) [FLAC] { Japan, Remastered, 16 CDs, EMI, TOCP-71147-62 }\Pink Floyd – A Momentary Lapse Of Reason (1987) [FLAC] { TOCP-71145 }\08 – A New Machine Part 1.wav

Peak level 46.7 %
Track quality 100.0 %
Test CRC 23309D47
Copy CRC 23309D47
Copy OK

Track 9

Filename C:\Losslessworld.info\Pink Floyd – The Discovery Studio Album Box Set (2011) [FLAC] { Japan, Remastered, 16 CDs, EMI, TOCP-71147-62 }\Pink Floyd – A Momentary Lapse Of Reason (1987) [FLAC] { TOCP-71145 }\09 – Terminal Frost.wav

Peak level 77.7 %
Track quality 100.0 %
Test CRC 8E5A03B8
Copy CRC 8E5A03B8
Copy OK

Track 10

Filename C:\Losslessworld.info\Pink Floyd – The Discovery Studio Album Box Set (2011) [FLAC] { Japan, Remastered, 16 CDs, EMI, TOCP-71147-62 }\Pink Floyd – A Momentary Lapse Of Reason (1987) [FLAC] { TOCP-71145 }\10 – A New Machine Part 2.wav

Peak level 46.3 %
Track quality 100.0 %
Test CRC 3222F6EF
Copy CRC 3222F6EF
Copy OK

Track 11

Filename C:\Losslessworld.info\Pink Floyd – The Discovery Studio Album Box Set (2011) [FLAC] { Japan, Remastered, 16 CDs, EMI, TOCP-71147-62 }\Pink Floyd – A Momentary Lapse Of Reason (1987) [FLAC] { TOCP-71145 }\11 – Sorrow.wav

Peak level 78.6 %
Track quality 100.0 %
Test CRC 9BDEA8CD
Copy CRC 9BDEA8CD
Copy OK

No errors occurred

End of status report

REM GENRE “Progressive Rock”
REM DATE 1987
REM DISCID 8F0BF70B
REM COMMENT “ExactAudioCopy v0.99pb5”
PERFORMER “Pink Floyd”
TITLE “A Momentary Lapse Of Reason”
FILE “01 – Signs Of Life.wav” WAVE
TRACK 01 AUDIO
TITLE “Signs Of Life”
PERFORMER “Pink Floyd”
INDEX 01 00:00:00
FILE “02 – Learning To Fly.wav” WAVE
TRACK 02 AUDIO
TITLE “Learning To Fly”
PERFORMER “Pink Floyd”
INDEX 01 00:00:00
FILE “03 – The Dogs Of War.wav” WAVE
TRACK 03 AUDIO
TITLE “The Dogs Of War”
PERFORMER “Pink Floyd”
INDEX 01 00:00:00
FILE “04 – One Slip.wav” WAVE
TRACK 04 AUDIO
TITLE “One Slip”
PERFORMER “Pink Floyd”
INDEX 01 00:00:00
FILE “05 – On The Turning Away.wav” WAVE
TRACK 05 AUDIO
TITLE “On The Turning Away”
PERFORMER “Pink Floyd”
INDEX 01 00:00:00
FILE “06 – Yet Another Movie.wav” WAVE
TRACK 06 AUDIO
TITLE “Yet Another Movie”
PERFORMER “Pink Floyd”
INDEX 01 00:00:00
FILE “07 – Round And Around.wav” WAVE
TRACK 07 AUDIO
TITLE “Round And Around”
PERFORMER “Pink Floyd”
INDEX 01 00:00:00
FILE “08 – A New Machine Part 1.wav” WAVE
TRACK 08 AUDIO
TITLE “A New Machine Part 1”
PERFORMER “Pink Floyd”
INDEX 01 00:00:00
FILE “09 – Terminal Frost.wav” WAVE
TRACK 09 AUDIO
TITLE “Terminal Frost”
PERFORMER “Pink Floyd”
INDEX 01 00:00:00
FILE “10 – A New Machine Part 2.wav” WAVE
TRACK 10 AUDIO
TITLE “A New Machine Part 2”
PERFORMER “Pink Floyd”
INDEX 01 00:00:00
FILE “11 – Sorrow.wav” WAVE
TRACK 11 AUDIO
TITLE “Sorrow”
PERFORMER “Pink Floyd”
INDEX 01 00:00:00

Leave a Reply

Your email address will not be published. Required fields are marked *

Enter the text from the image below
 

This site uses Akismet to reduce spam. Learn how your comment data is processed.