Phil Collins – Testify




No Cover available

Artist: Phil Collins
Year: 2002
Genre: Rock
Notes: Discogs
Add. Notes:
Watch Songs on: YouTube
Cover incl.: Yes
Encoder: FLAC
Bitrate: ~1000 kBit/s (44.1 kHz/16 Bit/s)
Log & Cue incl.: Yes/Yes
Size: 538,1 MB
Password: “slam” (without ” “)


All Downloads/Hosters are compatible

Download 1
KatFile.com
Turbobit.net
FileFactory.com
Rapidgator.net
Download 2
KatFile.com
Turbobit.net
FileFactory.com
Rapidgator.net

Tracklist:

1 Wake Up Call 5:15
2 Come With Me 4:34
3 Testify 6:31
4 Don't Get Me Started 4:41
5 Swing Low 5:08
6 It's Not Too Late 3:59
7 This Love This Heart 4:04
8 The Least You Can Do 4:37
9 Driving Me Crazy 4:21
10 Can't Stop Loving You 4:17
11 Thru My Eyes 5:07
12 You Touch My Heart 4:44

EAC-Log, CUE-Sheed & NFO:

Click to open spoiler
Exact Audio Copy V1.1 from 23. June 2015

Отчёт EAC об извлечении, выполненном 10. мая 2017, 20:37

Phil Collins / Testify

Дисковод: TEAC CD-W552GB Adapter: 1 ID: 0

Режим чтения : Достоверность
Использование точного потока : Да
Отключение кэша аудио : Да
Использование указателей C2 : Нет

Коррекция смещения при чтении : 6
Способность читать области Lead-in и Lead-out : Нет
Заполнение пропущенных сэмплов тишиной : Да
Удаление блоков с тишиной в начале и конце : Нет
При вычислениях CRC использовались нулевые сэмплы : Да
Интерфейс : Встроенный Win32-интерфейс для Win NT/2000

Выходной формат : Пользовательский кодировщик
Выбранный битрейт : 1024 kBit/s
Качество : Высокий
Добавление ID3-тега : Нет
Утилита сжатия : C:\Program Files (x86)\Exact Audio Copy\Flac\flac.exe
Дополнительные параметры : -V -8 -T “Date=%year%” -T “Genre=%genre%” %source%

TOC извлечённого CD

Трек | Старт | Длительность | Начальный сектор | Конечный сектор
———————————————————————
1 | 0:00.00 | 5:15.67 | 0 | 23691
2 | 5:15.67 | 4:34.20 | 23692 | 44261
3 | 9:50.12 | 6:31.53 | 44262 | 73639
4 | 16:21.65 | 4:41.25 | 73640 | 94739
5 | 21:03.15 | 5:08.10 | 94740 | 117849
6 | 26:11.25 | 3:59.47 | 117850 | 135821
7 | 30:10.72 | 4:04.58 | 135822 | 154179
8 | 34:15.55 | 4:37.47 | 154180 | 175001
9 | 38:53.27 | 4:21.68 | 175002 | 194644
10 | 43:15.20 | 4:17.22 | 194645 | 213941
11 | 47:32.42 | 5:07.18 | 213942 | 236984
12 | 52:39.60 | 4:42.65 | 236985 | 258199
13 | 59:54.50 | 14:03.25 | 269600 | 332849

Характеристики диапазона извлечения и сообщения об ошибках

Выбранный диапазон

Имя файла D:\MuCD\Phil Collins – Testify\Phil Collins – Testify.wav

Пиковый уровень 98.8 %
Скорость извлечения 3.2 X
Качество диапазона 100.0 %
CRC теста 56EC3397
CRC копии 56EC3397
Копирование… OK

Ошибок не произошло

AccurateRip: сводка

Трек 1 : извлечено точно (доверие 2) [4EC6653A] (AR v1)
Трек 2 : извлечено точно (доверие 3) [E6C2BFB2] (AR v1)
Трек 3 : извлечено точно (доверие 2) [6D22AF01] (AR v2)
Трек 4 : извлечено точно (доверие 2) [5283A29D] (AR v2)
Трек 5 : извлечено точно (доверие 2) [C067A87D] (AR v2)
Трек 6 : извлечено точно (доверие 3) [7C0D3D6E] (AR v1)
Трек 7 : извлечено точно (доверие 2) [8FE74157] (AR v2)
Трек 8 : извлечено точно (доверие 3) [E20BB059] (AR v2)
Трек 9 : извлечено точно (доверие 2) [C48A28FF] (AR v2)
Трек 10 : извлечено точно (доверие 2) [5B81D752] (AR v2)
Трек 11 точность не определена (достоверность 103) [CAD1014C], AccurateRip вернул [3A178FD0] (AR v2)
Трек 12 : извлечено точно (доверие 2) [D4F56B80] (AR v1)

11 трек(и) скопированы точно
1 трек(и) не удалось проверить на точность

Некоторые треки не прошли проверку на точность

Конец отчёта

==== Контрольная сумма отчёта AA1C5347755646DBC8251A738F9BE089EA1144967D5099BDB5B1F67A1EAC216B ====

REM GENRE Pop
REM DATE 2002
REM DISCID C211560D
REM COMMENT “ExactAudioCopy v1.1”
PERFORMER “Phil Collins”
TITLE “Testify”
FILE “Phil Collins – Testify.flac” WAVE
TRACK 01 AUDIO
TITLE “Wake Up Call”
PERFORMER “Phil Collins”
INDEX 01 00:00:00
TRACK 02 AUDIO
TITLE “Come With Me”
PERFORMER “Phil Collins”
INDEX 00 05:14:05
INDEX 01 05:15:67
TRACK 03 AUDIO
TITLE “Testify”
PERFORMER “Phil Collins”
INDEX 00 09:48:30
INDEX 01 09:50:12
TRACK 04 AUDIO
TITLE “Don’t Get Me Started”
PERFORMER “Phil Collins”
INDEX 00 16:20:02
INDEX 01 16:21:65
TRACK 05 AUDIO
TITLE “Swing Low”
PERFORMER “Phil Collins”
INDEX 00 21:01:37
INDEX 01 21:03:15
TRACK 06 AUDIO
TITLE “It’s Not Too Late”
PERFORMER “Phil Collins”
INDEX 00 26:10:27
INDEX 01 26:11:25
TRACK 07 AUDIO
TITLE “This Love This Heart”
PERFORMER “Phil Collins”
INDEX 00 30:09:40
INDEX 01 30:10:72
TRACK 08 AUDIO
TITLE “Driving Me Crazy”
PERFORMER “Phil Collins”
INDEX 01 34:15:55
TRACK 09 AUDIO
TITLE “The Least You Can Do”
PERFORMER “Phil Collins”
INDEX 00 38:50:57
INDEX 01 38:53:27
TRACK 10 AUDIO
TITLE “Can’t Stop Loving You”
PERFORMER “Phil Collins”
INDEX 00 43:13:72
INDEX 01 43:15:20
TRACK 11 AUDIO
TITLE “Thru My Eyes”
PERFORMER “Phil Collins”
INDEX 00 47:31:55
INDEX 01 47:32:42
TRACK 12 AUDIO
TITLE “You Touch My Heart”
PERFORMER “Phil Collins”
INDEX 00 52:38:02
INDEX 01 52:39:60


Leave a Reply

Your email address will not be published. Required fields are marked *

Enter the text from the image below
 

This site uses Akismet to reduce spam. Learn how your comment data is processed.