Phil Collins – Testify (Remastered Deluxe Edition)




Artist: Phil Collins
Year: 2002/2016
Genre: Rock
Notes: Discogs
Add. Notes: Remastered Deluxe Edition
Cover incl.: Yes
Encoder: FLAC
Bitrate: ~900 kBit/s (44.1 kHz/16 Bit/s)
Log & Cue incl.: Yes
Size: 728,96 MB
Password: “slam” (without ” “)


All Downloads/Hosters are compatible

Download 1
Turbobit.net
Rapidgator.net
UploadEver.com
KatFile.com
UsersDrive.com
Download 2
Turbobit.net
Rapidgator.net
UploadEver.com
KatFile.com
UsersDrive.com
Download 3
Turbobit.net
Rapidgator.net
UploadEver.com
KatFile.com
UsersDrive.com

Tracklist:

Testify
1-1 - Wake Up Call - 5:15
1-2 - Come With Me - 4:34
1-3 - Testify - 6:31
1-4 - Don't Get Me Started - 4:41
1-5 - Swing Low - 5:08
1-6 - It's Not Too Late - 3:59
1-7 - This Love This Heart - 4:04
1-8 - Driving Me Crazy - 4:37
1-9 - The Least You Can Do - 4:21
1-10 - Can't Stop Loving You - 4:16
1-11 - Thru My Eyes - 5:07
1-12 - You Touch My Heart - 4:46
Additional Testimony
2-1 - High Flying Angel - 4:43
2-2 - Crystal Clear - 3:05
2-3 - Hey Now Sunshine - 5:02
2-4 - Tv Story - 4:05
2-5 - True Colors (Live Rehearsal, Toulouse 2004) - 5:31
2-6 - Come With Me (Live Bercy, Paris 2004) - 5:13
2-7 - It's Not Too Late (Live Bercy, Paris 2004) - 4:03
2-8 - Can't Stop Loving You (Live Bercy, Paris 2004) - 
4:33
2-9 - It's Loving You (Demo) - 5:22
2-10 - Tearing And Breaking (Demo) - 5:43

EAC-Log, CUE-Sheed & NFO:

Click to open spoiler
Exact Audio Copy V1.1 from 23. June 2015

EAC extraction logfile from 14. April 2016, 18:42

Phil Collins / Additional Testimony

Used drive : PIONEER DVD-RW DVR-221L Adapter: 1 ID: 1

Read mode : Secure
Utilize accurate stream : Yes
Defeat audio cache : Yes
Make use of C2 pointers : No

Read offset correction : 6
Overread into Lead-In and Lead-Out : No
Fill up missing offset samples with silence : Yes
Delete leading and trailing silent blocks : No
Null samples used in CRC calculations : Yes
Used interface : Native Win32 interface for Win NT & 2000

Used output format : Internal WAV Routines
Sample format : 44.100 Hz; 16 Bit; Stereo

TOC of the extracted CD

Track | Start | Length | Start sector | End sector
———————————————————
1 | 0:00.00 | 4:43.05 | 0 | 21229
2 | 4:43.05 | 3:05.38 | 21230 | 35142
3 | 7:48.43 | 5:02.04 | 35143 | 57796
4 | 12:50.47 | 4:05.69 | 57797 | 76240
5 | 16:56.41 | 5:31.43 | 76241 | 101108
6 | 22:28.09 | 5:13.25 | 101109 | 124608
7 | 27:41.34 | 4:03.32 | 124609 | 142865
8 | 31:44.66 | 4:33.70 | 142866 | 163410
9 | 36:18.61 | 5:22.35 | 163411 | 187595
10 | 41:41.21 | 5:43.66 | 187596 | 213386

Range status and errors

Selected range

Filename K:\SPOTNET\Phil Collins – Testify 2016 (EAC)\CD2\Phil Collins – Additional Testimony.wav

Peak level 98.9 %
Extraction speed 7.2 X
Range quality 100.0 %
Test CRC 4A1DFE24
Copy CRC 4A1DFE24
Copy OK

No errors occurred

AccurateRip summary

Track 1 not present in database
Track 2 not present in database
Track 3 not present in database
Track 4 not present in database
Track 5 not present in database
Track 6 not present in database
Track 7 not present in database
Track 8 not present in database
Track 9 not present in database
Track 10 not present in database

None of the tracks are present in the AccurateRip database

End of status report

Exact Audio Copy V1.1 from 23. June 2015

EAC extraction logfile from 14. April 2016, 18:21

Phil Collins / Testify (Remastered)

Used drive : PIONEER DVD-RW DVR-221L Adapter: 1 ID: 1

Read mode : Secure
Utilize accurate stream : Yes
Defeat audio cache : Yes
Make use of C2 pointers : No

Read offset correction : 6
Overread into Lead-In and Lead-Out : No
Fill up missing offset samples with silence : Yes
Delete leading and trailing silent blocks : No
Null samples used in CRC calculations : Yes
Used interface : Native Win32 interface for Win NT & 2000

Used output format : Internal WAV Routines
Sample format : 44.100 Hz; 16 Bit; Stereo

TOC of the extracted CD

Track | Start | Length | Start sector | End sector
———————————————————
1 | 0:00.00 | 5:15.70 | 0 | 23694
2 | 5:15.70 | 4:34.17 | 23695 | 44261
3 | 9:50.12 | 6:31.39 | 44262 | 73625
4 | 16:21.51 | 4:41.34 | 73626 | 94734
5 | 21:03.10 | 5:08.24 | 94735 | 117858
6 | 26:11.34 | 3:59.49 | 117859 | 135832
7 | 30:11.08 | 4:04.55 | 135833 | 154187
8 | 34:15.63 | 4:37.50 | 154188 | 175012
9 | 38:53.38 | 4:21.73 | 175013 | 194660
10 | 43:15.36 | 4:16.34 | 194661 | 213894
11 | 47:31.70 | 5:07.65 | 213895 | 236984
12 | 52:39.60 | 4:46.30 | 236985 | 258464

Range status and errors

Selected range

Filename K:\SPOTNET\Phil Collins – Testify 2016 (EAC)\CD1\Phil Collins – Testify (Remastered).wav

Peak level 98.7 %
Extraction speed 7.5 X
Range quality 100.0 %
Test CRC 154AC114
Copy CRC 154AC114
Copy OK

No errors occurred

AccurateRip summary

Track 1 not present in database
Track 2 not present in database
Track 3 not present in database
Track 4 not present in database
Track 5 not present in database
Track 6 not present in database
Track 7 not present in database
Track 8 not present in database
Track 9 not present in database
Track 10 not present in database
Track 11 not present in database
Track 12 not present in database

None of the tracks are present in the AccurateRip database

End of status report

REM GENRE Pop
REM DATE 2016
REM DISCID AB0D760C
REM COMMENT “ExactAudioCopy v1.1”
PERFORMER “Phil Collins”
TITLE “Testify (Remastered)”
FILE “Phil Collins – Testify (Remastered).wav” WAVE
TRACK 01 AUDIO
TITLE “Wake Up Call”
PERFORMER “Phil Collins”
INDEX 01 00:00:00
TRACK 02 AUDIO
TITLE “Come With Me”
PERFORMER “Phil Collins”
INDEX 01 05:15:70
TRACK 03 AUDIO
TITLE “Testify”
PERFORMER “Phil Collins”
INDEX 01 09:50:12
TRACK 04 AUDIO
TITLE “Don’t Get Me Started”
PERFORMER “Phil Collins”
INDEX 01 16:21:51
TRACK 05 AUDIO
TITLE “Swing Low”
PERFORMER “Phil Collins”
INDEX 01 21:03:10
TRACK 06 AUDIO
TITLE “It’s Not Too Late”
PERFORMER “Phil Collins”
INDEX 01 26:11:34
TRACK 07 AUDIO
TITLE “This Love This Heart”
PERFORMER “Phil Collins”
INDEX 01 30:11:08
TRACK 08 AUDIO
TITLE “Driving Me Crazy”
PERFORMER “Phil Collins”
INDEX 01 34:15:63
TRACK 09 AUDIO
TITLE “The Least You Can Do”
PERFORMER “Phil Collins”
INDEX 01 38:53:38
TRACK 10 AUDIO
TITLE “Can’t Stop Loving You”
PERFORMER “Phil Collins”
INDEX 01 43:15:36
TRACK 11 AUDIO
TITLE “Thru My Eyes”
PERFORMER “Phil Collins”
INDEX 01 47:31:70
TRACK 12 AUDIO
TITLE “You Touch My Heart”
PERFORMER “Phil Collins”
INDEX 01 52:39:60

REM GENRE Pop
REM DATE 2016
REM DISCID 740B1D0A
REM COMMENT “ExactAudioCopy v1.1”
PERFORMER “Phil Collins”
TITLE “Additional Testimony”
FILE “Phil Collins – Additional Testimony.wav” WAVE
TRACK 01 AUDIO
TITLE “High Fly Angel (B Side)”
PERFORMER “Phil Collins”
INDEX 01 00:00:00
TRACK 02 AUDIO
TITLE “Crystal Clear (B Side)”
PERFORMER “Phil Collins”
INDEX 01 04:43:05
TRACK 03 AUDIO
TITLE “Hey Now Sunshine (B Side)”
PERFORMER “Phil Collins”
INDEX 01 07:48:43
TRACK 04 AUDIO
TITLE “Tv Story (B Side)”
PERFORMER “Phil Collins”
INDEX 01 12:50:47
TRACK 05 AUDIO
TITLE “True Colors (Live)”
PERFORMER “Phil Collins”
INDEX 01 16:56:41
TRACK 06 AUDIO
TITLE “Come With Me (Live)”
PERFORMER “Phil Collins”
INDEX 01 22:28:09
TRACK 07 AUDIO
TITLE “It’s Not Too Late (Live)”
PERFORMER “Phil Collins”
INDEX 01 27:41:34
TRACK 08 AUDIO
TITLE “Can’t Stop Loving You (Live)”
PERFORMER “Phil Collins”
INDEX 01 31:44:66
TRACK 09 AUDIO
TITLE “It’s Only Loving (Demo)”
PERFORMER “Phil Collins”
INDEX 01 36:18:61
TRACK 10 AUDIO
TITLE “Tearing And Breaking (Demo)”
PERFORMER “Phil Collins”
INDEX 01 41:41:21

Leave a Reply

Your email address will not be published. Required fields are marked *

This site uses Akismet to reduce spam. Learn how your comment data is processed.