Phil Collins – No Jacket Required (Remastered)




No Cover available

Artist: Phil Collins
Year: 2016
Genre: Rock
Notes: Discogs
Add. Notes: Remastered
Watch Songs on: YouTube
Cover incl.: Yes
Encoder: FLAC
Bitrate: ~900 kBit/s (44.1 kHz/16 Bit/s)
Log & Cue incl.: Yes
Size: 1666 MB
Password: “slam” (without ” “)


All Downloads/Hosters are compatible

Download 1
KatFile.com
Turbobit.net
FileFactory.com
Rapidgator.net
Download 2
KatFile.com
Turbobit.net
FileFactory.com
Rapidgator.net

Tracklist:

No Jacket Required
1-1 - Sussudio - 4:24
1-2 - Only You Know And I Know - 4:21
1-3 - Long Long Way To Go - 4:22
1-4 - I Don't Wanna Know - 4:15
1-5 - One More Night - 4:51
1-6 - Don't Lose My Number - 4:48
1-7 - Who Said I Would - 4:01
1-8 - Doesn't Anybody Stay Together Anymore - 4:18
1-9 - Inside Out - 5:15
1-10 - Take Me Home - 5:51
1-11 - We Said Hello Goodbye - 4:21
Extra Large Jacket Required
2-1 - Sussudio (Live Berlin, 1990) - 7:18
2-2 - Don't Lose My Number (Live Bercy, Paris 1997) - 
5:00
2-3 - Who Said I Would (Live Dallas, 1985) - 4:32
2-4 - Long Long Way To Go (Live Bercy, Paris 1997) - 
3:56
2-5 - Only You Know And I Know (Live 1994) - 4:52
2-6 - Easy Lover (Live Bercy, Paris 1997) - 5:03
2-7 - Inside Out (Live Berlin, 1990) - 5:31
2-8 - Doesn't Anybody Stay Together Anymore (Live 
Berlin, 1990) - 5:56
2-9 - One More Night (Live Berlin, 1990) - 5:54
2-10 - Take Me Home (Live Berlin, 1990) - 8:54
2-11 - Only You Know And I Know (Demo) - 3:43
2-12 - One More Night (Demo) - 4:41
2-13 - Take Me Home (Demo) - 5:22

EAC-Log, CUE-Sheed & NFO:

Click to open spoiler
Exact Audio Copy V1.1 from 23. June 2015

EAC extraction logfile from 14. April 2016, 17:53

Phil Collins / Extra Large Jacket Required

Used drive : PIONEER DVD-RW DVR-221L Adapter: 1 ID: 1

Read mode : Secure
Utilize accurate stream : Yes
Defeat audio cache : Yes
Make use of C2 pointers : No

Read offset correction : 6
Overread into Lead-In and Lead-Out : No
Fill up missing offset samples with silence : Yes
Delete leading and trailing silent blocks : No
Null samples used in CRC calculations : Yes
Used interface : Native Win32 interface for Win NT & 2000

Used output format : Internal WAV Routines
Sample format : 44.100 Hz; 16 Bit; Stereo

TOC of the extracted CD

Track | Start | Length | Start sector | End sector
———————————————————
1 | 0:00.00 | 7:18.11 | 0 | 32860
2 | 7:18.11 | 5:00.64 | 32861 | 55424
3 | 12:19.00 | 4:32.15 | 55425 | 75839
4 | 16:51.15 | 3:56.30 | 75840 | 93569
5 | 20:47.45 | 4:52.38 | 93570 | 115507
6 | 25:40.08 | 5:03.32 | 115508 | 138264
7 | 30:43.40 | 5:31.51 | 138265 | 163140
8 | 36:15.16 | 5:56.16 | 163141 | 189856
9 | 42:11.32 | 5:54.60 | 189857 | 216466
10 | 48:06.17 | 8:54.52 | 216467 | 256568
11 | 57:00.69 | 3:43.74 | 256569 | 273367
12 | 60:44.68 | 4:41.20 | 273368 | 294462
13 | 65:26.13 | 5:22.30 | 294463 | 318642

Range status and errors

Selected range

Filename K:\SPOTNET\Phil Collins – No Jacket Required 2016 (EAC)\CD2\Phil Collins – Extra Large Jacket Required.wav

Peak level 98.9 %
Extraction speed 8.4 X
Range quality 100.0 %
Test CRC E6877353
Copy CRC E6877353
Copy OK

No errors occurred

AccurateRip summary

Track 1 not present in database
Track 2 not present in database
Track 3 not present in database
Track 4 not present in database
Track 5 not present in database
Track 6 not present in database
Track 7 not present in database
Track 8 not present in database
Track 9 not present in database
Track 10 not present in database
Track 11 not present in database
Track 12 not present in database
Track 13 not present in database

None of the tracks are present in the AccurateRip database

End of status report

Exact Audio Copy V1.1 from 23. June 2015

EAC extraction logfile from 14. April 2016, 17:30

Phil Collins / No Jacket Required (Remastered)

Used drive : PIONEER DVD-RW DVR-221L Adapter: 1 ID: 1

Read mode : Secure
Utilize accurate stream : Yes
Defeat audio cache : Yes
Make use of C2 pointers : No

Read offset correction : 6
Overread into Lead-In and Lead-Out : No
Fill up missing offset samples with silence : Yes
Delete leading and trailing silent blocks : No
Null samples used in CRC calculations : Yes
Used interface : Native Win32 interface for Win NT & 2000

Used output format : Internal WAV Routines
Sample format : 44.100 Hz; 16 Bit; Stereo

TOC of the extracted CD

Track | Start | Length | Start sector | End sector
———————————————————
1 | 0:00.00 | 4:24.10 | 0 | 19809
2 | 4:24.10 | 4:21.34 | 19810 | 39418
3 | 8:45.44 | 4:22.65 | 39419 | 59133
4 | 13:08.34 | 4:15.05 | 59134 | 78263
5 | 17:23.39 | 4:51.19 | 78264 | 100107
6 | 22:14.58 | 4:48.68 | 100108 | 121775
7 | 27:03.51 | 4:01.44 | 121776 | 139894
8 | 31:05.20 | 4:18.45 | 139895 | 159289
9 | 35:23.65 | 5:15.67 | 159290 | 182981
10 | 40:39.57 | 5:51.29 | 182982 | 209335
11 | 46:31.11 | 4:21.19 | 209336 | 228929

Range status and errors

Selected range

Filename K:\SPOTNET\Phil Collins – No Jacket Required 2016 (EAC)\CD1\Phil Collins – No Jacket Required (Remastered).wav

Peak level 98.9 %
Extraction speed 7.2 X
Range quality 99.9 %
Test CRC 0A567FF9
Copy CRC 0A567FF9
Copy OK

No errors occurred

AccurateRip summary

Track 1 not present in database
Track 2 not present in database
Track 3 not present in database
Track 4 not present in database
Track 5 not present in database
Track 6 not present in database
Track 7 not present in database
Track 8 not present in database
Track 9 not present in database
Track 10 not present in database
Track 11 not present in database

None of the tracks are present in the AccurateRip database

End of status report

REM GENRE Pop
REM DATE 2016
REM DISCID 930BEC0B
REM COMMENT “ExactAudioCopy v1.1”
PERFORMER “Phil Collins”
TITLE “No Jacket Required (Remastered)”
FILE “Phil Collins – No Jacket Required (Remastered).wav” WAVE
TRACK 01 AUDIO
TITLE “Sussudio”
PERFORMER “Phil Collins”
INDEX 01 00:00:00
TRACK 02 AUDIO
TITLE “Only You Know and I Know”
PERFORMER “Phil Collins”
INDEX 01 04:24:10
TRACK 03 AUDIO
TITLE “Long Long Way to Go”
PERFORMER “Phil Collins”
INDEX 01 08:45:44
TRACK 04 AUDIO
TITLE “I Don’t Wanna Know”
PERFORMER “Phil Collins”
INDEX 01 13:08:34
TRACK 05 AUDIO
TITLE “One More Night”
PERFORMER “Phil Collins”
INDEX 01 17:23:39
TRACK 06 AUDIO
TITLE “Don’t Lose My Number”
PERFORMER “Phil Collins”
INDEX 01 22:14:58
TRACK 07 AUDIO
TITLE “Who Said I Would”
PERFORMER “Phil Collins”
INDEX 01 27:03:51
TRACK 08 AUDIO
TITLE “Doesn’t Anybody Stay Together Anymore”
PERFORMER “Phil Collins”
INDEX 01 31:05:20
TRACK 09 AUDIO
TITLE “Inside Out”
PERFORMER “Phil Collins”
INDEX 01 35:23:65
TRACK 10 AUDIO
TITLE “Take Me Home”
PERFORMER “Phil Collins”
INDEX 01 40:39:57
TRACK 11 AUDIO
TITLE “We Said Hello Goodbye”
PERFORMER “Phil Collins”
INDEX 01 46:31:11

REM GENRE Pop
REM DATE 2016
REM DISCID B510980D
REM COMMENT “ExactAudioCopy v1.1”
PERFORMER “Phil Collins”
TITLE “Extra Large Jacket Required”
FILE “Phil Collins – Extra Large Jacket Required.wav” WAVE
TRACK 01 AUDIO
TITLE “Sussudio (Live)”
PERFORMER “Phil Collins”
INDEX 01 00:00:00
TRACK 02 AUDIO
TITLE “Don’t Lose My Number (Live)”
PERFORMER “Phil Collins”
INDEX 01 07:18:11
TRACK 03 AUDIO
TITLE “Who Said I Know (Live)”
PERFORMER “Phil Collins”
INDEX 01 12:19:00
TRACK 04 AUDIO
TITLE “Long Long Way To Go (Live)”
PERFORMER “Phil Collins”
INDEX 01 16:51:15
TRACK 05 AUDIO
TITLE “Only You Know And I Know (Live)”
PERFORMER “Phil Collins”
INDEX 01 20:47:45
TRACK 06 AUDIO
TITLE “Easy Lover (Live)”
PERFORMER “Phil Collins”
INDEX 01 25:40:08
TRACK 07 AUDIO
TITLE “Inside Out (Live)”
PERFORMER “Phil Collins”
INDEX 01 30:43:40
TRACK 08 AUDIO
TITLE “Doesn’t Anybody Stay Together Anymore (Live)”
PERFORMER “Phil Collins”
INDEX 01 36:15:16
TRACK 09 AUDIO
TITLE “One More Night (Live)”
PERFORMER “Phil Collins”
INDEX 01 42:11:32
TRACK 10 AUDIO
TITLE “Take Me Home (Live)”
PERFORMER “Phil Collins”
INDEX 01 48:06:17
TRACK 11 AUDIO
TITLE “Only You Know And I Know (Demo)”
PERFORMER “Phil Collins”
INDEX 00 57:00:51
INDEX 01 57:00:69
TRACK 12 AUDIO
TITLE “One More Night (Demo)”
PERFORMER “Phil Collins”
INDEX 01 60:44:68
TRACK 13 AUDIO
TITLE “Take Me Home (Demo)”
PERFORMER “Phil Collins”
INDEX 01 65:26:13


Leave a Reply

Your email address will not be published. Required fields are marked *

Enter the text from the image below
 

This site uses Akismet to reduce spam. Learn how your comment data is processed.