Phil Collins – Face Value (Reissue)




Artist: Phil Collins
Year: 1981/1999
Genre: Rock
Notes: Discogs
Add. Notes: Reissue
Cover incl.: Yes
Encoder: FLAC
Bitrate: ~700 kBit/s (44.1 kHz/16 Bit/s)
Log & Cue incl.: Yes/Yes
Size: 306,5 MB
Password: “slam” (without ” “)


All Downloads/Hosters are compatible

Download 1
KatFile.com
Turbobit.net
FileFactory.com
Rapidgator.net
Download 2
KatFile.com
Turbobit.net
FileFactory.com
Rapidgator.net

Tracklist:

1 - In The Air Tonight - 5:36
2 - This Must Be Love - 3:56
3 - Behind The Lines - 3:54
4 - The Roof Is Leaking - 3:17
5 - Droned - 2:49
6 - Hand In Hand - 5:22
7 - I Missed Again - 3:46
8 - You Know What I Mean - 2:33
9 - Thunder And Lightning - 4:14
10 - I'm Not Moving - 2:35
11 - If Leaving Me Is Easy - 4:55
12 - Tomorrow Never Knows - 4:46

EAC-Log, CUE-Sheed & NFO:

Click to open spoiler
Exact Audio Copy V1.1 from 23. June 2015

Отчёт EAC об извлечении, выполненном 9. мая 2017, 12:14

Phil Collins / Face Value

Дисковод: TEAC CD-W552GB Adapter: 1 ID: 0

Режим чтения : Достоверность
Использование точного потока : Да
Отключение кэша аудио : Да
Использование указателей C2 : Нет

Коррекция смещения при чтении : 6
Способность читать области Lead-in и Lead-out : Нет
Заполнение пропущенных сэмплов тишиной : Да
Удаление блоков с тишиной в начале и конце : Нет
При вычислениях CRC использовались нулевые сэмплы : Да
Интерфейс : Встроенный Win32-интерфейс для Win NT/2000

Выходной формат : Пользовательский кодировщик
Выбранный битрейт : 1024 kBit/s
Качество : Высокий
Добавление ID3-тега : Нет
Утилита сжатия : C:\Program Files (x86)\Exact Audio Copy\Flac\flac.exe
Дополнительные параметры : -V -8 -T “Date=%year%” -T “Genre=%genre%” %source%

TOC извлечённого CD

Трек | Старт | Длительность | Начальный сектор | Конечный сектор
———————————————————————
1 | 0:00.00 | 5:36.42 | 0 | 25241
2 | 5:36.42 | 3:56.43 | 25242 | 42984
3 | 9:33.10 | 3:54.72 | 42985 | 60606
4 | 13:28.07 | 3:17.50 | 60607 | 75431
5 | 16:45.57 | 2:49.60 | 75432 | 88166
6 | 19:35.42 | 5:22.13 | 88167 | 112329
7 | 24:57.55 | 3:46.27 | 112330 | 129306
8 | 28:44.07 | 2:33.23 | 129307 | 140804
9 | 31:17.30 | 4:14.00 | 140805 | 159854
10 | 35:31.30 | 2:35.37 | 159855 | 171516
11 | 38:06.67 | 4:55.55 | 171517 | 193696
12 | 43:02.47 | 4:46.60 | 193697 | 215206

Характеристики диапазона извлечения и сообщения об ошибках

Выбранный диапазон

Имя файла D:\MuCD\Phil Collins – Face Value\Phil Collins – Face Value.wav

Пиковый уровень 100.0 %
Скорость извлечения 8.5 X
Качество диапазона 100.0 %
CRC теста 60CDD664
CRC копии 60CDD664
Копирование… OK

Ошибок не произошло

AccurateRip: сводка

Трек 1 : извлечено точно (доверие 200) [970201DA] (AR v2)
Трек 2 : извлечено точно (доверие 200) [9537271C] (AR v2)
Трек 3 : извлечено точно (доверие 200) [A3D3DD40] (AR v2)
Трек 4 : извлечено точно (доверие 200) [0BEA7225] (AR v2)
Трек 5 : извлечено точно (доверие 200) [53C15810] (AR v2)
Трек 6 : извлечено точно (доверие 200) [994CF297] (AR v2)
Трек 7 : извлечено точно (доверие 200) [1F52DF9E] (AR v2)
Трек 8 : извлечено точно (доверие 200) [6300FE27] (AR v2)
Трек 9 : извлечено точно (доверие 200) [E968E93F] (AR v2)
Трек 10 : извлечено точно (доверие 200) [4791A773] (AR v2)
Трек 11 : извлечено точно (доверие 200) [6090BE61] (AR v2)
Трек 12 : извлечено точно (доверие 197) [3EC19888] (AR v2)

Все треки извлечены точно

Конец отчёта

==== Контрольная сумма отчёта 3A48B1F060F25E006F87E1E7ECA1C68FEC386817FBE7DC759EA45E41DA6D78E7 ====

REM GENRE “Rock Pop”
REM DATE 1981
REM DISCID B20B350C
REM COMMENT “ExactAudioCopy v1.1”
PERFORMER “Phil Collins”
TITLE “Face Value”
FILE “Phil Collins – Face Value.flac” WAVE
TRACK 01 AUDIO
TITLE “In The Air Tonight”
PERFORMER “Phil Collins”
INDEX 01 00:00:00
TRACK 02 AUDIO
TITLE “This Must Be Love”
PERFORMER “Phil Collins”
INDEX 00 05:32:07
INDEX 01 05:36:42
TRACK 03 AUDIO
TITLE “Behind The Lines”
PERFORMER “Phil Collins”
INDEX 01 09:33:10
TRACK 04 AUDIO
TITLE “The Roof Is Leaking”
PERFORMER “Phil Collins”
INDEX 01 13:28:07
TRACK 05 AUDIO
TITLE “Droned”
PERFORMER “Phil Collins”
INDEX 01 16:45:57
TRACK 06 AUDIO
TITLE “Hand In Hand”
PERFORMER “Phil Collins”
INDEX 01 19:35:42
TRACK 07 AUDIO
TITLE “I Missed Again”
PERFORMER “Phil Collins”
INDEX 00 24:55:10
INDEX 01 24:57:55
TRACK 08 AUDIO
TITLE “You Know What I Mean”
PERFORMER “Phil Collins”
INDEX 00 28:40:10
INDEX 01 28:44:07
TRACK 09 AUDIO
TITLE “Thunder And Lightning”
PERFORMER “Phil Collins”
INDEX 01 31:17:30
TRACK 10 AUDIO
TITLE “I’m Not Moving”
PERFORMER “Phil Collins”
INDEX 01 35:31:30
TRACK 11 AUDIO
TITLE “If Leaving Me Is Easy”
PERFORMER “Phil Collins”
INDEX 00 38:04:10
INDEX 01 38:06:67
TRACK 12 AUDIO
TITLE “Tomorrow Never Knows”
PERFORMER “Phil Collins”
INDEX 00 43:00:47
INDEX 01 43:02:47


Leave a Reply

Your email address will not be published. Required fields are marked *

Enter the text from the image below
 

This site uses Akismet to reduce spam. Learn how your comment data is processed.