Phil Collins – Dance Into The Light




No Cover available

Artist: Phil Collins
Year: 1996
Genre: Rock
Notes: Discogs
Add. Notes:
Watch Songs on: YouTube
Cover incl.: Yes
Encoder: FLAC
Bitrate: ~1000 kBit/s (44.1 kHz/16 Bit/s)
Log & Cue incl.: Yes/Yes
Size: 521,8 MB
Password: “slam” (without ” “)


All Downloads/Hosters are compatible

Download 1
KatFile.com
Turbobit.net
FileFactory.com
Rapidgator.net
Download 2
KatFile.com
Turbobit.net
FileFactory.com
Rapidgator.net

Tracklist:

1 Dance Into The Light 4:24
2 That's What You Said 4:20
3 Lorenzo 5:52
4 Just Another Story 6:25
5 Love Police 4:11
6 Wear My Hat 4:44
7 It's In Your Eyes 3:02
8 Oughta Know By Now 5:30
9 Take Me Down 3:27
10 The Same Moon 4:09
11 River So Wide 4:57
12 No Matter Who 4:40
13 The Times They Are A-Changin' 5:08

EAC-Log, CUE-Sheed & NFO:

Click to open spoiler
Exact Audio Copy V1.1 from 23. June 2015

Отчёт EAC об извлечении, выполненном 9. мая 2017, 21:25

Phil Collins / Dance Into The Light

Дисковод: TEAC CD-W552GB Adapter: 1 ID: 0

Режим чтения : Достоверность
Использование точного потока : Да
Отключение кэша аудио : Да
Использование указателей C2 : Нет

Коррекция смещения при чтении : 6
Способность читать области Lead-in и Lead-out : Нет
Заполнение пропущенных сэмплов тишиной : Да
Удаление блоков с тишиной в начале и конце : Нет
При вычислениях CRC использовались нулевые сэмплы : Да
Интерфейс : Встроенный Win32-интерфейс для Win NT/2000

Выходной формат : Пользовательский кодировщик
Выбранный битрейт : 1024 kBit/s
Качество : Высокий
Добавление ID3-тега : Нет
Утилита сжатия : C:\Program Files (x86)\Exact Audio Copy\Flac\flac.exe
Дополнительные параметры : -V -8 -T “Date=%year%” -T “Genre=%genre%” %source%

TOC извлечённого CD

Трек | Старт | Длительность | Начальный сектор | Конечный сектор
———————————————————————
1 | 0:00.00 | 4:24.00 | 0 | 19799
2 | 4:24.00 | 4:20.72 | 19800 | 39371
3 | 8:44.72 | 5:52.38 | 39372 | 65809
4 | 14:37.35 | 6:25.00 | 65810 | 94684
5 | 21:02.35 | 4:11.00 | 94685 | 113509
6 | 25:13.35 | 4:44.00 | 113510 | 134809
7 | 29:57.35 | 3:02.72 | 134810 | 148531
8 | 33:00.32 | 5:30.40 | 148532 | 173321
9 | 38:30.72 | 3:27.00 | 173322 | 188846
10 | 41:57.72 | 4:09.58 | 188847 | 207579
11 | 46:07.55 | 4:57.00 | 207580 | 229854
12 | 51:04.55 | 4:40.47 | 229855 | 250901
13 | 55:45.27 | 5:08.03 | 250902 | 274004

Характеристики диапазона извлечения и сообщения об ошибках

Выбранный диапазон

Имя файла D:\MuCD\Phil Collins – Dance Into The Light\Phil Collins – Dance Into The Light.wav

Пиковый уровень 98.4 %
Скорость извлечения 9.8 X
Качество диапазона 100.0 %
CRC теста 40607A91
CRC копии 40607A91
Копирование… OK

Ошибок не произошло

AccurateRip: сводка

Трек 1 : извлечено точно (доверие 200) [B773C570] (AR v2)
Трек 2 : извлечено точно (доверие 200) [6317BEF9] (AR v2)
Трек 3 : извлечено точно (доверие 200) [68E5F2B2] (AR v2)
Трек 4 : извлечено точно (доверие 200) [7436E69D] (AR v2)
Трек 5 : извлечено точно (доверие 200) [DE6AD3C2] (AR v2)
Трек 6 : извлечено точно (доверие 200) [A2EC8234] (AR v2)
Трек 7 : извлечено точно (доверие 200) [A2F1DB70] (AR v2)
Трек 8 : извлечено точно (доверие 200) [82535EFF] (AR v2)
Трек 9 : извлечено точно (доверие 200) [B546C76F] (AR v2)
Трек 10 : извлечено точно (доверие 200) [233D6F27] (AR v2)
Трек 11 : извлечено точно (доверие 200) [31911DC3] (AR v2)
Трек 12 : извлечено точно (доверие 200) [2D2833A3] (AR v2)
Трек 13 : извлечено точно (доверие 200) [E34B2BE3] (AR v2)

Все треки извлечены точно

Конец отчёта

==== Контрольная сумма отчёта 824D5952701CD611E65672241856DB4CFDFA585BF823A1B0D2869944B4ADF815 ====

REM GENRE Pop
REM DATE 1996
REM DISCID CD0E450D
REM COMMENT “ExactAudioCopy v1.1”
PERFORMER “Phil Collins”
TITLE “Dance Into The Light”
FILE “Phil Collins – Dance Into The Light.flac” WAVE
TRACK 01 AUDIO
TITLE “Dance Into The Light ”
PERFORMER “Phil Collins”
INDEX 01 00:00:00
TRACK 02 AUDIO
TITLE “That’s What You Said ”
PERFORMER “Phil Collins”
INDEX 00 04:23:72
INDEX 01 04:24:00
TRACK 03 AUDIO
TITLE “Lorenzo ”
PERFORMER “Phil Collins”
INDEX 01 08:44:72
TRACK 04 AUDIO
TITLE “Just Another Story ”
PERFORMER “Phil Collins”
INDEX 00 14:37:27
INDEX 01 14:37:35
TRACK 05 AUDIO
TITLE “Love Police”
PERFORMER “Phil Collins”
INDEX 00 21:02:17
INDEX 01 21:02:35
TRACK 06 AUDIO
TITLE “Wear My Hat ”
PERFORMER “Phil Collins”
INDEX 00 25:12:32
INDEX 01 25:13:35
TRACK 07 AUDIO
TITLE “It’s In Your Eyes ”
PERFORMER “Phil Collins”
INDEX 00 29:54:35
INDEX 01 29:57:35
TRACK 08 AUDIO
TITLE “Oughta Know By Now ”
PERFORMER “Phil Collins”
INDEX 00 32:59:15
INDEX 01 33:00:32
TRACK 09 AUDIO
TITLE “Take Me Down ”
PERFORMER “Phil Collins”
INDEX 00 38:29:70
INDEX 01 38:30:72
TRACK 10 AUDIO
TITLE “The Same Moon ”
PERFORMER “Phil Collins”
INDEX 00 41:56:12
INDEX 01 41:57:72
TRACK 11 AUDIO
TITLE “River So Wide ”
PERFORMER “Phil Collins”
INDEX 01 46:07:55
TRACK 12 AUDIO
TITLE “No Matter Who ”
PERFORMER “Phil Collins”
INDEX 00 51:04:17
INDEX 01 51:04:55
TRACK 13 AUDIO
TITLE “The Times They Are A-Ahangin’ ”
PERFORMER “Phil Collins”
INDEX 01 55:45:27


Leave a Reply

Your email address will not be published. Required fields are marked *

Enter the text from the image below
 

This site uses Akismet to reduce spam. Learn how your comment data is processed.