Percy “Thrills” Thrillington – Thrillington




No Cover available

Artist: Percy “Thrills” Thrillington
Year: 1977/1995
Genre: Rock
Notes: Discogs
Add. Notes:
Watch Songs on: YouTube
Cover incl.: Yes
Encoder: FLAC
Bitrate: ~800 kBit/s (44.1 kHz/16 Bit/s)
Log & Cue incl.: Yes/Yes
Size: 367,6 MB
Password: “slam” (without ” “)


All Downloads/Hosters are compatible

Download 1
KatFile.com
Turbobit.net
Rapidgator.net
FileFactory.com
Download 2
KatFile.com
Turbobit.net
Rapidgator.net
FileFactory.com

Tracklist:

1 Too Many People 4:31
2 3 Legs 3:41
3 Ram On 2:49
4 Dear Boy 2:50
5 Uncle Albert/Admiral Halsey 4:56
6 Smile Away 4:39
7 Heart Of The Country 2:27
8 Monkberry Moon Delight 4:36
9 Eat At Home 3:28
10 Long Haired Lady 5:44
11 Back Seat Of My Car 4:51

EAC-Log, CUE-Sheed & NFO:

Click to open spoiler
Exact Audio Copy V0.99 prebeta 5 from 4. May 2009

Отчёт EAC об извлечении, выполненном 10. февраля 2011, 16:14

Percy “Thrills” Thrillington / Thrillington

Дисковод: Optiarc DVD RW AD-7240S Adapter: 1 ID: 0

Режим чтения : Достоверность
Использование точного потока : Да
Отключение кэша аудио : Да
Использование указателей C2 : Нет

Коррекция смещения при чтении : 48
Способность читать области Lead-in и Lead-out : Нет
Заполнение пропущенных сэмплов тишиной : Да
Удаление блоков с тишиной в начале и конце : Нет
При вычислениях CRC использовались нулевые сэмплы : Да
Интерфейс : Встроенный Win32-интерфейс для Win NT/2000

Выходной формат : Пользовательский кодировщик
Выбранный битрейт : 768 kBit/s
Качество : Высокий
Добавление ID3-тэга : Нет
Утилита сжатия : C:\Program Files\Exact Audio Copy\FLAC\FLAC.EXE
Дополнительные параметры : -6 -V -T “ARTIST=%a” -T “TITLE=%t” -T “ALBUM=%g” -T “DATE=%y” -T “TRACKNUMBER=%n” -T “GENRE=%m” -T “COMMENT=%e” %s -o %d

TOC извлечённого CD

Трек | Старт | Длительность | Начальный сектор | Конечный сектор
———————————————————————
1 | 0:00.33 | 4:31.65 | 33 | 20422
2 | 4:32.23 | 3:41.35 | 20423 | 37032
3 | 8:13.58 | 2:52.02 | 37033 | 49934
4 | 11:05.60 | 2:50.73 | 49935 | 62757
5 | 13:56.58 | 4:57.42 | 62758 | 85074
6 | 18:54.25 | 4:40.55 | 85075 | 106129
7 | 23:35.05 | 2:26.45 | 106130 | 117124
8 | 26:01.50 | 4:39.03 | 117125 | 138052
9 | 30:40.53 | 3:30.02 | 138053 | 153804
10 | 34:10.55 | 5:48.63 | 153805 | 179967
11 | 39:59.43 | 4:50.60 | 179968 | 201777

Характеристики диапазона извлечения и сообщения об ошибках

Выбранный диапазон

Имя файла E:\music\Paul McCartney Thrillington\Percy Thrills Thrillington – Thrillington.wav

Пиковый уровень 100.0 %
Качество диапазона 99.9 %
CRC теста 99CC0B83
CRC копии 99CC0B83
Копирование… OK

Ошибок не произошло

AccurateRip: сводка

Трек 1 точность не определена (достоверность 5) [3A38192F], AccurateRip вернул [7D01CCA7]
Трек 2 точность не определена (достоверность 5) [67A8EE9B], AccurateRip вернул [4C590F63]
Трек 3 точность не определена (достоверность 5) [4C88EAC4], AccurateRip вернул [68E4E82C]
Трек 4 точность не определена (достоверность 5) [AF92B3E7], AccurateRip вернул [99EFE067]
Трек 5 точность не определена (достоверность 5) [2E558C9E], AccurateRip вернул [81A17DD6]
Трек 6 точность не определена (достоверность 5) [1929A0BE], AccurateRip вернул [4DA2024E]
Трек 7 точность не определена (достоверность 5) [84D845CE], AccurateRip вернул [94A2A51B]
Трек 8 точность не определена (достоверность 5) [DF428505], AccurateRip вернул [C71A2D88]
Трек 9 точность не определена (достоверность 5) [D5FD72E2], AccurateRip вернул [CFD9C84A]
Трек 10 точность не определена (достоверность 5) [3CE393EE], AccurateRip вернул [ABD40656]
Трек 11 точность не определена (достоверность 5) [55CC118E], AccurateRip вернул [CF578D26]

Ни один трек не прошёл проверки на точность
В вашей базе может быть иной вариант штамповки диска

Конец отчёта

REM GENRE Pop
REM DATE 1977
REM DISCID 8D0A820B
REM COMMENT “ExactAudioCopy v0.99pb5”
PERFORMER “Percy ‘Thrills’ Thrillington”
TITLE “Thrillington”
FILE “Percy Thrills Thrillington – Thrillington.flac” WAVE
TRACK 01 AUDIO
TITLE “Too Many People”
PERFORMER “Percy ‘Thrills’ Thrillington”
INDEX 00 00:00:00
INDEX 01 00:00:33
TRACK 02 AUDIO
TITLE “3 Legs”
PERFORMER “Percy ‘Thrills’ Thrillington”
INDEX 00 04:31:05
INDEX 01 04:32:23
TRACK 03 AUDIO
TITLE “Ram On”
PERFORMER “Percy ‘Thrills’ Thrillington”
INDEX 00 08:13:30
INDEX 01 08:13:58
TRACK 04 AUDIO
TITLE “Dear Boy”
PERFORMER “Percy ‘Thrills’ Thrillington”
INDEX 00 11:03:13
INDEX 01 11:05:60
TRACK 05 AUDIO
TITLE “Uncle Albert/Admiral Halsey”
PERFORMER “Percy ‘Thrills’ Thrillington”
INDEX 00 13:56:13
INDEX 01 13:56:58
TRACK 06 AUDIO
TITLE “Smile Away”
PERFORMER “Percy ‘Thrills’ Thrillington”
INDEX 00 18:52:38
INDEX 01 18:54:25
TRACK 07 AUDIO
TITLE “Heart Of The Country”
PERFORMER “Percy ‘Thrills’ Thrillington”
INDEX 00 23:32:63
INDEX 01 23:35:05
TRACK 08 AUDIO
TITLE “Monkberry Moon Delight”
PERFORMER “Percy ‘Thrills’ Thrillington”
INDEX 00 26:01:48
INDEX 01 26:01:50
TRACK 09 AUDIO
TITLE “Eat At Home”
PERFORMER “Percy ‘Thrills’ Thrillington”
INDEX 00 30:37:25
INDEX 01 30:40:53
TRACK 10 AUDIO
TITLE “Long Haired Lady”
PERFORMER “Percy ‘Thrills’ Thrillington”
INDEX 00 34:08:23
INDEX 01 34:10:55
TRACK 11 AUDIO
TITLE “Back Seat Of My Car”
PERFORMER “Percy ‘Thrills’ Thrillington”
INDEX 00 39:55:03
INDEX 01 39:59:43


Leave a Reply

Your email address will not be published. Required fields are marked *

Enter the text from the image below
 

This site uses Akismet to reduce spam. Learn how your comment data is processed.