Pearl Jam – Yield




Artist: Pearl Jam
Year: 1998
Genre: Rock
Notes: Discogs
Add. Notes:
Cover incl.: Yes
Encoder: FLAC
Bitrate: ~1000 kBit/s (44.1 kHz/16 Bit/s)
Log & Cue incl.: Yes
Size: 378,45 MB
Password: “slam” (without ” “)


All Downloads/Hosters are compatible

Download 1
Turbobit.net
KatFile.com
Rapidgator.net
Usersdrive.com
Download 2
Turbobit.net
KatFile.com
Rapidgator.net
Usersdrive.com

Tracklist:

1 - Brain Of J. - 2:59
2 - Faithfull - 4:17
3 - No Way - 4:18
4 - Given To Fly - 4:00
5 - Wishlist - 3:26
6 - Pilate - 3:00
7 - Do The Evolution - 3:53
8 - • - 1:06
9 - MFC - 2:27
10 - Low Light - 3:45
11 - In Hiding - 4:59
12 - Push Me, Pull Me - 2:27
13.1 - All Those Yesterdays - 7:44
13.2 - (silence) - 
13.3 - Hummus

EAC-Log, CUE-Sheed & NFO:

Click to open spoiler
Exact Audio Copy V0.99 prebeta 5 from 4. May 2009

EAC extraction logfile from 28. December 2009, 1:58

Pearl Jam / Yield

Used drive : TSSTcorpCDDVDW SH-S222A Adapter: 0 ID: 0

Read mode : Secure
Utilize accurate stream : Yes
Defeat audio cache : Yes
Make use of C2 pointers : No

Read offset correction : 6
Overread into Lead-In and Lead-Out : No
Fill up missing offset samples with silence : Yes
Delete leading and trailing silent blocks : No
Null samples used in CRC calculations : Yes
Used interface : Native Win32 interface for Win NT & 2000
Gap handling : Appended to previous track

Used output format : User Defined Encoder
Selected bitrate : 1024 kBit/s
Quality : High
Add ID3 tag : No
Command line compressor : C:\Program Files (x86)\Exact Audio Copy\FLAC\FLAC.EXE
Additional command line options : -8 -V -T “ARTIST=%a” -T “TITLE=%t” -T “ALBUM=%g” -T “DATE=%y” -T “TRACKNUMBER=%n” -T “GENRE=%m” -T “COMMENT=EAC FLAC -8” %s

TOC of the extracted CD

Track | Start | Length | Start sector | End sector
———————————————————
1 | 0:00.50 | 2:59.55 | 50 | 13529
2 | 3:00.30 | 4:18.37 | 13530 | 32916
3 | 7:18.67 | 4:19.28 | 32917 | 52369
4 | 11:38.20 | 4:01.07 | 52370 | 70451
5 | 15:39.27 | 3:26.58 | 70452 | 85959
6 | 19:06.10 | 3:00.40 | 85960 | 99499
7 | 22:06.50 | 3:54.07 | 99500 | 117056
8 | 26:00.57 | 1:06.60 | 117057 | 122066
9 | 27:07.42 | 2:27.73 | 122067 | 133164
10 | 29:35.40 | 3:46.15 | 133165 | 150129
11 | 33:21.55 | 5:00.05 | 150130 | 172634
12 | 38:21.60 | 2:28.00 | 172635 | 183734
13 | 40:49.60 | 7:45.30 | 183735 | 218639

Track 1

Filename D:\Audio\Music\Pearl Jam\1998-Yield\01 – Brain of J..wav

Pre-gap length 0:00:02.66

Peak level 99.6 %
Track quality 100.0 %
Test CRC 670AB733
Copy CRC 670AB733
Accurately ripped (confidence 153) [E2E09448]
Copy OK

Track 2

Filename D:\Audio\Music\Pearl Jam\1998-Yield\02 – Faithfull.wav

Peak level 99.6 %
Track quality 100.0 %
Test CRC DBA7067D
Copy CRC DBA7067D
Accurately ripped (confidence 153) [982B3352]
Copy OK

Track 3

Filename D:\Audio\Music\Pearl Jam\1998-Yield\03 – No Way.wav

Peak level 99.6 %
Track quality 100.0 %
Test CRC 866B0D15
Copy CRC 866B0D15
Accurately ripped (confidence 153) [24424B3E]
Copy OK

Track 4

Filename D:\Audio\Music\Pearl Jam\1998-Yield\04 – Given To Fly.wav

Peak level 99.6 %
Track quality 99.9 %
Test CRC 81EAC096
Copy CRC 81EAC096
Accurately ripped (confidence 153) [F91265CE]
Copy OK

Track 5

Filename D:\Audio\Music\Pearl Jam\1998-Yield\05 – Wishlist.wav

Peak level 99.6 %
Track quality 100.0 %
Test CRC 9F58E165
Copy CRC 9F58E165
Accurately ripped (confidence 152) [3B12A24B]
Copy OK

Track 6

Filename D:\Audio\Music\Pearl Jam\1998-Yield\06 – Pilate.wav

Peak level 98.8 %
Track quality 100.0 %
Test CRC 0122518B
Copy CRC 0122518B
Accurately ripped (confidence 153) [5D9B2FE9]
Copy OK

Track 7

Filename D:\Audio\Music\Pearl Jam\1998-Yield\07 – Do The Evolution.wav

Peak level 98.8 %
Track quality 99.9 %
Test CRC 0B6CCA93
Copy CRC 0B6CCA93
Accurately ripped (confidence 153) [561A5EE4]
Copy OK

Track 8

Filename D:\Audio\Music\Pearl Jam\1998-Yield\08 – [Red Dot].wav

Peak level 98.5 %
Track quality 100.0 %
Test CRC C943B631
Copy CRC C943B631
Accurately ripped (confidence 153) [2E1D4F96]
Copy OK

Track 9

Filename D:\Audio\Music\Pearl Jam\1998-Yield\09 – MFC.wav

Peak level 99.6 %
Track quality 100.0 %
Test CRC 26470213
Copy CRC 26470213
Accurately ripped (confidence 152) [4C3DA4DF]
Copy OK

Track 10

Filename D:\Audio\Music\Pearl Jam\1998-Yield\10 – Low Light.wav

Peak level 99.6 %
Track quality 100.0 %
Test CRC A86D5105
Copy CRC A86D5105
Accurately ripped (confidence 151) [80F44015]
Copy OK

Track 11

Filename D:\Audio\Music\Pearl Jam\1998-Yield\11 – In Hiding.wav

Peak level 100.0 %
Track quality 100.0 %
Test CRC E1603F21
Copy CRC E1603F21
Accurately ripped (confidence 152) [09C41809]
Copy OK

Track 12

Filename D:\Audio\Music\Pearl Jam\1998-Yield\12 – Push Me, Pull Me.wav

Peak level 99.6 %
Track quality 100.0 %
Test CRC CC478699
Copy CRC CC478699
Accurately ripped (confidence 152) [074877C9]
Copy OK

Track 13

Filename D:\Audio\Music\Pearl Jam\1998-Yield\13 – All Those Yesterdays.wav

Peak level 99.6 %
Track quality 100.0 %
Test CRC 4F9946AE
Copy CRC 4F9946AE
Accurately ripped (confidence 151) [EDED30D1]
Copy OK

All tracks accurately ripped

No errors occurred

End of status report

REM GENRE Grunge
REM DATE 1998
REM DISCID 950B630D
REM COMMENT “ExactAudioCopy v0.99pb5”
PERFORMER “Pearl Jam”
TITLE “Yield”
FILE “01 – Brain of J..wav” WAVE
TRACK 01 AUDIO
TITLE “Brain of J.”
PERFORMER “Pearl Jam”
FLAGS DCP
PREGAP 00:00:50
INDEX 01 00:00:00
FILE “02 – Faithfull.wav” WAVE
TRACK 02 AUDIO
TITLE “Faithfull”
PERFORMER “Pearl Jam”
FLAGS DCP
INDEX 01 00:00:00
FILE “03 – No Way.wav” WAVE
TRACK 03 AUDIO
TITLE “No Way”
PERFORMER “Pearl Jam”
FLAGS DCP
INDEX 01 00:00:00
FILE “04 – Given To Fly.wav” WAVE
TRACK 04 AUDIO
TITLE “Given To Fly”
PERFORMER “Pearl Jam”
FLAGS DCP
INDEX 01 00:00:00
FILE “05 – Wishlist.wav” WAVE
TRACK 05 AUDIO
TITLE “Wishlist”
PERFORMER “Pearl Jam”
FLAGS DCP
INDEX 01 00:00:00
FILE “06 – Pilate.wav” WAVE
TRACK 06 AUDIO
TITLE “Pilate”
PERFORMER “Pearl Jam”
FLAGS DCP
INDEX 01 00:00:00
FILE “07 – Do The Evolution.wav” WAVE
TRACK 07 AUDIO
TITLE “Do The Evolution”
PERFORMER “Pearl Jam”
FLAGS DCP
INDEX 01 00:00:00
FILE “08 – [Red Dot].wav” WAVE
TRACK 08 AUDIO
TITLE “[Red Dot]”
PERFORMER “Pearl Jam”
FLAGS DCP
INDEX 01 00:00:00
FILE “09 – MFC.wav” WAVE
TRACK 09 AUDIO
TITLE “MFC”
PERFORMER “Pearl Jam”
FLAGS DCP
INDEX 01 00:00:00
FILE “10 – Low Light.wav” WAVE
TRACK 10 AUDIO
TITLE “Low Light”
PERFORMER “Pearl Jam”
FLAGS DCP
INDEX 01 00:00:00
FILE “11 – In Hiding.wav” WAVE
TRACK 11 AUDIO
TITLE “In Hiding”
PERFORMER “Pearl Jam”
FLAGS DCP
INDEX 01 00:00:00
FILE “12 – Push Me, Pull Me.wav” WAVE
TRACK 12 AUDIO
TITLE “Push Me, Pull Me”
PERFORMER “Pearl Jam”
FLAGS DCP
INDEX 01 00:00:00
FILE “13 – All Those Yesterdays.wav” WAVE
TRACK 13 AUDIO
TITLE “All Those Yesterdays”
PERFORMER “Pearl Jam”
FLAGS DCP
INDEX 01 00:00:00


Leave a Reply

Your email address will not be published. Required fields are marked *

This site uses Akismet to reduce spam. Learn how your comment data is processed.