Pearl Jam – Yield (Japanese Edition)




[Total: 0    Average: 0/5]

Artist: Pearl Jam
Year: 1998
Genre: Rock
Notes: Discogs
Add. Notes: Japanese Edition
Cover incl.: Yes
Encoder: FLAC
Bitrate: ~1000 kBit/s (44.1 kHz/16 Bit/s)
Log & Cue incl.: Yes
Size: 372 MB
Password: “slam” (without ” “)


All Downloads/Hosters are compatible

Download 1
KatFile.com
Turbobit.net
FileFactory.com
Rapidgator.net
Download 2
KatFile.com
Turbobit.net
FileFactory.com
Rapidgator.net

Tracklist:

1 - Brain Of J - 2:59
2 - Faithful - 4:18
3 - No Way - 4:19
4 - Given To Fly - 4:01
5 - Wishlist - 3:26
6 - Pilate - 3:00
7 - Do The Evolution - 3:54
8 - Untitled Song - 1:06
9 - MFC - 2:28
10 - Low Light - 3:46
11 - In Hiding - 5:00
12 - Push Me Pull Me - 2:28
13 - All Those Yesterdays - 7:42

EAC-Log, CUE-Sheed & NFO:

Click to open spoiler
Exact Audio Copy V0.99 prebeta 5 from 4. May 2009

EAC extraction logfile from 16. March 2010, 16:36

Pearl Jam / Yield

Used drive : HL-DT-STDVDRAM GSA-H42N Adapter: 0 ID: 0

Read mode : Secure
Utilize accurate stream : Yes
Defeat audio cache : Yes
Make use of C2 pointers : No

Read offset correction : 667
Overread into Lead-In and Lead-Out : No
Fill up missing offset samples with silence : Yes
Delete leading and trailing silent blocks : No
Null samples used in CRC calculations : Yes
Used interface : Native Win32 interface for Win NT & 2000
Gap handling : Appended to previous track

Used output format : User Defined Encoder
Selected bitrate : 128 kBit/s
Quality : High
Add ID3 tag : No
Command line compressor : C:\Program Files\Exact Audio Copy\Flac\flac.exe
Additional command line options : -8 -V -T “ARTIST=%a” -T “TITLE=%t” -T “ALBUM=%g” -T “DATE=%y” -T “TRACKNUMBER=%n” -T “GENRE=%m” -T “COMMENT=EAC FLAC -8” %s

TOC of the extracted CD

Track | Start | Length | Start sector | End sector
———————————————————
1 | 0:00.00 | 2:59.52 | 0 | 13476
2 | 2:59.52 | 4:18.65 | 13477 | 32891
3 | 7:18.42 | 4:19.25 | 32892 | 52341
4 | 11:37.67 | 4:01.10 | 52342 | 70426
5 | 15:39.02 | 3:26.58 | 70427 | 85934
6 | 19:05.60 | 3:00.32 | 85935 | 99466
7 | 22:06.17 | 3:54.03 | 99467 | 117019
8 | 26:00.20 | 1:06.67 | 117020 | 122036
9 | 27:07.12 | 2:28.05 | 122037 | 133141
10 | 29:35.17 | 3:46.15 | 133142 | 150106
11 | 33:21.32 | 5:00.02 | 150107 | 172608
12 | 38:21.34 | 2:28.00 | 172609 | 183708
13 | 40:49.34 | 7:42.46 | 183709 | 218404

Track 1

Filename D:\Pearl Jam\xPearl Jam – 1998 – Yield\01 – Brain of J..wav

Pre-gap length 0:00:02.00

Peak level 99.6 %
Track quality 100.0 %
Test CRC B670C08A
Copy CRC B670C08A
Track not present in AccurateRip database
Copy OK

Track 2

Filename D:\Pearl Jam\xPearl Jam – 1998 – Yield\02 – Faithfull.wav

Peak level 99.6 %
Track quality 100.0 %
Test CRC 9A0CC293
Copy CRC 9A0CC293
Track not present in AccurateRip database
Copy OK

Track 3

Filename D:\Pearl Jam\xPearl Jam – 1998 – Yield\03 – No Way.wav

Peak level 99.6 %
Track quality 99.9 %
Test CRC BCB86DE2
Copy CRC BCB86DE2
Track not present in AccurateRip database
Copy OK

Track 4

Filename D:\Pearl Jam\xPearl Jam – 1998 – Yield\04 – Given To Fly.wav

Peak level 99.6 %
Track quality 100.0 %
Test CRC 3862105C
Copy CRC 3862105C
Track not present in AccurateRip database
Copy OK

Track 5

Filename D:\Pearl Jam\xPearl Jam – 1998 – Yield\05 – Wishlist.wav

Peak level 99.6 %
Track quality 100.0 %
Test CRC 7DC473CF
Copy CRC 7DC473CF
Track not present in AccurateRip database
Copy OK

Track 6

Filename D:\Pearl Jam\xPearl Jam – 1998 – Yield\06 – Pilate.wav

Peak level 98.8 %
Track quality 100.0 %
Test CRC EA17C11A
Copy CRC EA17C11A
Track not present in AccurateRip database
Copy OK

Track 7

Filename D:\Pearl Jam\xPearl Jam – 1998 – Yield\07 – Do The Evolution.wav

Peak level 98.8 %
Track quality 100.0 %
Test CRC C7443648
Copy CRC C7443648
Track not present in AccurateRip database
Copy OK

Track 8

Filename D:\Pearl Jam\xPearl Jam – 1998 – Yield\08 – (Untitled).wav

Peak level 98.5 %
Track quality 100.0 %
Test CRC FD82682E
Copy CRC FD82682E
Track not present in AccurateRip database
Copy OK

Track 9

Filename D:\Pearl Jam\xPearl Jam – 1998 – Yield\09 – MFC.wav

Peak level 99.6 %
Track quality 99.9 %
Test CRC 8ADC6233
Copy CRC 8ADC6233
Track not present in AccurateRip database
Copy OK

Track 10

Filename D:\Pearl Jam\xPearl Jam – 1998 – Yield\10 – Low Light.wav

Peak level 99.6 %
Track quality 100.0 %
Test CRC 9B6E471D
Copy CRC 9B6E471D
Track not present in AccurateRip database
Copy OK

Track 11

Filename D:\Pearl Jam\xPearl Jam – 1998 – Yield\11 – In Hiding.wav

Peak level 100.0 %
Track quality 100.0 %
Test CRC E887ADA1
Copy CRC E887ADA1
Track not present in AccurateRip database
Copy OK

Track 12

Filename D:\Pearl Jam\xPearl Jam – 1998 – Yield\12 – Push Me, Pull Me.wav

Peak level 99.6 %
Track quality 100.0 %
Test CRC 42DB45E6
Copy CRC 42DB45E6
Track not present in AccurateRip database
Copy OK

Track 13

Filename D:\Pearl Jam\xPearl Jam – 1998 – Yield\13 – All Those Yesterdays.wav

Peak level 99.6 %
Track quality 100.0 %
Test CRC EE7FD71B
Copy CRC EE7FD71B
Track not present in AccurateRip database
Copy OK

None of the tracks are present in the AccurateRip database

No errors occurred

End of status report

REM GENRE Rock
REM DATE 1998
REM DISCID A40B600D
REM COMMENT “ExactAudioCopy v0.99pb5”
PERFORMER “Pearl Jam”
TITLE “Yield”
FILE “01 – Brain of J..wav” WAVE
TRACK 01 AUDIO
TITLE “Brain of J.”
PERFORMER “Pearl Jam”
INDEX 01 00:00:00
FILE “02 – Faithfull.wav” WAVE
TRACK 02 AUDIO
TITLE “Faithfull”
PERFORMER “Pearl Jam”
INDEX 01 00:00:00
FILE “03 – No Way.wav” WAVE
TRACK 03 AUDIO
TITLE “No Way”
PERFORMER “Pearl Jam”
INDEX 01 00:00:00
FILE “04 – Given To Fly.wav” WAVE
TRACK 04 AUDIO
TITLE “Given To Fly”
PERFORMER “Pearl Jam”
INDEX 01 00:00:00
FILE “05 – Wishlist.wav” WAVE
TRACK 05 AUDIO
TITLE “Wishlist”
PERFORMER “Pearl Jam”
INDEX 01 00:00:00
FILE “06 – Pilate.wav” WAVE
TRACK 06 AUDIO
TITLE “Pilate”
PERFORMER “Pearl Jam”
INDEX 01 00:00:00
FILE “07 – Do The Evolution.wav” WAVE
TRACK 07 AUDIO
TITLE “Do The Evolution”
PERFORMER “Pearl Jam”
INDEX 01 00:00:00
FILE “08 – (Untitled).wav” WAVE
TRACK 08 AUDIO
TITLE “(Untitled)”
PERFORMER “Pearl Jam”
INDEX 01 00:00:00
FILE “09 – MFC.wav” WAVE
TRACK 09 AUDIO
TITLE “MFC”
PERFORMER “Pearl Jam”
INDEX 01 00:00:00
FILE “10 – Low Light.wav” WAVE
TRACK 10 AUDIO
TITLE “Low Light”
PERFORMER “Pearl Jam”
INDEX 01 00:00:00
FILE “11 – In Hiding.wav” WAVE
TRACK 11 AUDIO
TITLE “In Hiding”
PERFORMER “Pearl Jam”
INDEX 01 00:00:00
FILE “12 – Push Me, Pull Me.wav” WAVE
TRACK 12 AUDIO
TITLE “Push Me, Pull Me”
PERFORMER “Pearl Jam”
INDEX 01 00:00:00
FILE “13 – All Those Yesterdays.wav” WAVE
TRACK 13 AUDIO
TITLE “All Those Yesterdays”
PERFORMER “Pearl Jam”
INDEX 01 00:00:00


Spread the Download

Leave a Reply

Your email address will not be published. Required fields are marked *

Enter the text from the image below
 

This site uses Akismet to reduce spam. Learn how your comment data is processed.