Pearl Jam – Vs.




[Total: 0    Average: 0/5]

Artist: Pearl Jam
Year: 1993
Genre: Punk
Notes: Discogs
Add. Notes:
Cover incl.: Yes
Encoder: FLAC
Bitrate: ~1000 kBit/s (44.1 kHz/16 Bit/s)
Log & Cue incl.: Yes
Size: 347,61 MB
Password: “slam” (without ” “)


All Downloads/Hosters are compatible

Download 1
Share-online.biz
KatFile.com
Rapidgator.net
Download 2
Share-online.biz
KatFile.com
Rapidgator.net

Tracklist:

1 - Go - 3:13
2 - Animal - 2:48
3 - Daughter - 3:54
4 - Glorified G - 3:25
5 - Dissident - 3:35
6 - W.M.A. - 5:59
7 - Blood - 2:49
8 - Rearviewmirror - 4:43
9 - Rats - 4:14
10 - Elderly Woman Behind - 3:15
11 - Leash - 3:08
12 - Indifference - 5:02

EAC-Log, CUE-Sheed & NFO:

Click to open spoiler
Exact Audio Copy V0.99 prebeta 5 from 4. May 2009

EAC extraction logfile from 28. December 2009, 0:11

Pearl Jam / Vs.

Used drive : TSSTcorpCDDVDW SH-S222A Adapter: 0 ID: 0

Read mode : Secure
Utilize accurate stream : Yes
Defeat audio cache : Yes
Make use of C2 pointers : No

Read offset correction : 6
Overread into Lead-In and Lead-Out : No
Fill up missing offset samples with silence : Yes
Delete leading and trailing silent blocks : No
Null samples used in CRC calculations : Yes
Used interface : Native Win32 interface for Win NT & 2000
Gap handling : Appended to previous track

Used output format : User Defined Encoder
Selected bitrate : 1024 kBit/s
Quality : High
Add ID3 tag : No
Command line compressor : C:\Program Files (x86)\Exact Audio Copy\FLAC\FLAC.EXE
Additional command line options : -8 -V -T “ARTIST=%a” -T “TITLE=%t” -T “ALBUM=%g” -T “DATE=%y” -T “TRACKNUMBER=%n” -T “GENRE=%m” -T “COMMENT=EAC FLAC -8” %s

TOC of the extracted CD

Track | Start | Length | Start sector | End sector
———————————————————
1 | 0:00.00 | 3:13.27 | 0 | 14501
2 | 3:13.27 | 2:49.13 | 14502 | 27189
3 | 6:02.40 | 3:55.40 | 27190 | 44854
4 | 9:58.05 | 3:26.65 | 44855 | 60369
5 | 13:24.70 | 3:35.25 | 60370 | 76519
6 | 17:00.20 | 5:59.15 | 76520 | 103459
7 | 22:59.35 | 2:50.52 | 103460 | 116261
8 | 25:50.12 | 4:44.00 | 116262 | 137561
9 | 30:34.12 | 4:15.25 | 137562 | 156711
10 | 34:49.37 | 3:16.13 | 156712 | 171424
11 | 38:05.50 | 3:09.20 | 171425 | 185619
12 | 41:14.70 | 5:02.45 | 185620 | 208314

Track 1

Filename D:\Audio\Music\Pearl Jam\1993-Vs\01 – Go.wav

Pre-gap length 0:00:02.00

Peak level 97.7 %
Track quality 100.0 %
Test CRC 19C67A5C
Copy CRC 19C67A5C
Accurately ripped (confidence 55) [64728997]
Copy OK

Track 2

Filename D:\Audio\Music\Pearl Jam\1993-Vs\02 – Animal.wav

Peak level 97.7 %
Track quality 100.0 %
Test CRC CD671393
Copy CRC CD671393
Accurately ripped (confidence 55) [C6811D88]
Copy OK

Track 3

Filename D:\Audio\Music\Pearl Jam\1993-Vs\03 – Daughter.wav

Pre-gap length 0:00:01.09

Peak level 97.7 %
Track quality 100.0 %
Test CRC A333C19B
Copy CRC A333C19B
Accurately ripped (confidence 55) [88AA6B0A]
Copy OK

Track 4

Filename D:\Audio\Music\Pearl Jam\1993-Vs\04 – Glorified G.wav

Pre-gap length 0:00:00.58

Peak level 97.7 %
Track quality 99.9 %
Test CRC 8642FD8B
Copy CRC 8642FD8B
Accurately ripped (confidence 54) [36111EAF]
Copy OK

Track 5

Filename D:\Audio\Music\Pearl Jam\1993-Vs\05 – Dissident.wav

Pre-gap length 0:00:00.96

Peak level 98.2 %
Track quality 100.0 %
Test CRC 12119C51
Copy CRC 12119C51
Accurately ripped (confidence 54) [F4782AEB]
Copy OK

Track 6

Filename D:\Audio\Music\Pearl Jam\1993-Vs\06 – W.M.A..wav

Peak level 97.7 %
Track quality 100.0 %
Test CRC BF5DCE07
Copy CRC BF5DCE07
Accurately ripped (confidence 55) [A664417F]
Copy OK

Track 7

Filename D:\Audio\Music\Pearl Jam\1993-Vs\07 – Blood.wav

Peak level 97.7 %
Track quality 99.9 %
Test CRC 2F2AF46D
Copy CRC 2F2AF46D
Accurately ripped (confidence 54) [46EC2856]
Copy OK

Track 8

Filename D:\Audio\Music\Pearl Jam\1993-Vs\08 – Rearviewmirror.wav

Pre-gap length 0:00:01.18

Peak level 97.7 %
Track quality 100.0 %
Test CRC 3E230618
Copy CRC 3E230618
Accurately ripped (confidence 54) [B821AC17]
Copy OK

Track 9

Filename D:\Audio\Music\Pearl Jam\1993-Vs\09 – Rats.wav

Peak level 97.7 %
Track quality 99.9 %
Test CRC CAB92093
Copy CRC CAB92093
Accurately ripped (confidence 54) [65E16E91]
Copy OK

Track 10

Filename D:\Audio\Music\Pearl Jam\1993-Vs\10 – Elderly Woman Behind The Counter In A Small Town.wav

Pre-gap length 0:00:00.25

Peak level 97.7 %
Track quality 100.0 %
Test CRC F7DA2386
Copy CRC F7DA2386
Accurately ripped (confidence 52) [EC2F242D]
Copy OK

Track 11

Filename D:\Audio\Music\Pearl Jam\1993-Vs\11 – Leash.wav

Pre-gap length 0:00:00.62

Peak level 97.7 %
Track quality 99.9 %
Test CRC A70E0650
Copy CRC A70E0650
Accurately ripped (confidence 54) [1E349D2B]
Copy OK

Track 12

Filename D:\Audio\Music\Pearl Jam\1993-Vs\12 – Indifference.wav

Pre-gap length 0:00:00.89

Peak level 97.7 %
Track quality 100.0 %
Test CRC 0E0549BA
Copy CRC 0E0549BA
Accurately ripped (confidence 51) [0F76513F]
Copy OK

All tracks accurately ripped

No errors occurred

End of status report

REM GENRE Grunge
REM DATE 1993
REM DISCID 950AD90C
REM COMMENT “ExactAudioCopy v0.99pb5”
PERFORMER “Pearl Jam”
TITLE “Vs.”
FILE “01 – Go.wav” WAVE
TRACK 01 AUDIO
TITLE “Go”
PERFORMER “Pearl Jam”
INDEX 01 00:00:00
FILE “02 – Animal.wav” WAVE
TRACK 02 AUDIO
TITLE “Animal”
PERFORMER “Pearl Jam”
INDEX 01 00:00:00
TRACK 03 AUDIO
TITLE “Daughter”
PERFORMER “Pearl Jam”
INDEX 00 02:48:06
FILE “03 – Daughter.wav” WAVE
INDEX 01 00:00:00
TRACK 04 AUDIO
TITLE “Glorified G”
PERFORMER “Pearl Jam”
INDEX 00 03:54:71
FILE “04 – Glorified G.wav” WAVE
INDEX 01 00:00:00
TRACK 05 AUDIO
TITLE “Dissident”
PERFORMER “Pearl Jam”
INDEX 00 03:25:68
FILE “05 – Dissident.wav” WAVE
INDEX 01 00:00:00
FILE “06 – W.M.A..wav” WAVE
TRACK 06 AUDIO
TITLE “W.M.A.”
PERFORMER “Pearl Jam”
INDEX 01 00:00:00
FILE “07 – Blood.wav” WAVE
TRACK 07 AUDIO
TITLE “Blood”
PERFORMER “Pearl Jam”
INDEX 01 00:00:00
TRACK 08 AUDIO
TITLE “Rearviewmirror”
PERFORMER “Pearl Jam”
INDEX 00 02:49:38
FILE “08 – Rearviewmirror.wav” WAVE
INDEX 01 00:00:00
FILE “09 – Rats.wav” WAVE
TRACK 09 AUDIO
TITLE “Rats”
PERFORMER “Pearl Jam”
INDEX 01 00:00:00
TRACK 10 AUDIO
TITLE “Elderly Woman Behind The Counter In A Small Town”
PERFORMER “Pearl Jam”
INDEX 00 04:15:06
FILE “10 – Elderly Woman Behind The Counter In A Small Town.wav” WAVE
INDEX 01 00:00:00
TRACK 11 AUDIO
TITLE “Leash”
PERFORMER “Pearl Jam”
INDEX 00 03:15:41
FILE “11 – Leash.wav” WAVE
INDEX 01 00:00:00
TRACK 12 AUDIO
TITLE “Indifference”
PERFORMER “Pearl Jam”
INDEX 00 03:08:28
FILE “12 – Indifference.wav” WAVE
INDEX 01 00:00:00


Spread the Download

Leave a Reply

Your email address will not be published. Required fields are marked *

Enter the text from the image below
 

This site uses Akismet to reduce spam. Learn how your comment data is processed.