Pearl Jam – Vs (Japanese Edition)




Artist: Pearl Jam
Year: 1993
Genre: Rock
Notes: Discogs
Add. Notes: Japanese Edition
Cover incl.: Yes
Encoder: FLAC
Bitrate: ~900 kBit/s (44.1 kHz/16 Bit/s)
Log & Cue incl.: Yes
Size: 334 MB
Password: “slam” (without ” “)


All Downloads/Hosters are compatible

Download 1
KatFile.com
Turbobit.net
FileFactory.com
Rapidgator.net
Download 2
KatFile.com
Turbobit.net
FileFactory.com
Rapidgator.net

Tracklist:

1 Go 3:13
2 Animal 2:49
3 Daughter 3:55
4 Glorified G 3:26
5 Dissident 3:35
6 W.M.A 5:59
7 Blood 2:50
8 Rearviewmirror 4:44
9 Rats 4:15
10 Elderly Woman Behind The 
Counter In A Small Town 
3:15
11 Leash 3:09
12 Indifference 5:04

EAC-Log, CUE-Sheed & NFO:

Click to open spoiler
Exact Audio Copy V0.99 prebeta 5 from 4. May 2009

EAC extraction logfile from 31. March 2010, 22:57

Pearl Jam / Vs.

Used drive : HL-DT-STDVDRAM GH20NS10 Adapter: 3 ID: 0

Read mode : Secure
Utilize accurate stream : Yes
Defeat audio cache : Yes
Make use of C2 pointers : No

Read offset correction : 667
Overread into Lead-In and Lead-Out : No
Fill up missing offset samples with silence : Yes
Delete leading and trailing silent blocks : No
Null samples used in CRC calculations : Yes
Used interface : Native Win32 interface for Win NT & 2000
Gap handling : Appended to previous track

Used output format : User Defined Encoder
Selected bitrate : 128 kBit/s
Quality : High
Add ID3 tag : No
Command line compressor : C:\Program Files\Exact Audio Copy\Flac\flac.exe
Additional command line options : -8 -V -T “ARTIST=%a” -T “TITLE=%t” -T “ALBUM=%g” -T “DATE=%y” -T “TRACKNUMBER=%n” -T “GENRE=%m” -T “COMMENT=EAC FLAC -8” %s

TOC of the extracted CD

Track | Start | Length | Start sector | End sector
———————————————————
1 | 0:00.00 | 3:13.32 | 0 | 14506
2 | 3:13.32 | 2:49.15 | 14507 | 27196
3 | 6:02.47 | 3:55.38 | 27197 | 44859
4 | 9:58.10 | 3:26.65 | 44860 | 60374
5 | 13:25.00 | 3:35.25 | 60375 | 76524
6 | 17:00.25 | 5:59.15 | 76525 | 103464
7 | 22:59.40 | 2:50.52 | 103465 | 116266
8 | 25:50.17 | 4:44.00 | 116267 | 137566
9 | 30:34.17 | 4:15.25 | 137567 | 156716
10 | 34:49.42 | 3:15.65 | 156717 | 171406
11 | 38:05.32 | 3:09.45 | 171407 | 185626
12 | 41:15.02 | 5:04.10 | 185627 | 208436

Track 1

Filename C:\Users\wrong.device\Desktop\Pearl Jam – 1993 – Vs. [Japan, Sony, SRCS 6827]\01 – Go.wav

Pre-gap length 0:00:02.00

Peak level 97.7 %
Track quality 100.0 %
Test CRC C12CA3C8
Copy CRC C12CA3C8
Accurately ripped (confidence 2) [E447E0C1]
Copy OK

Track 2

Filename C:\Users\wrong.device\Desktop\Pearl Jam – 1993 – Vs. [Japan, Sony, SRCS 6827]\02 – Animal.wav

Peak level 97.7 %
Track quality 100.0 %
Test CRC EFC2CA3C
Copy CRC EFC2CA3C
Accurately ripped (confidence 2) [07BCAD89]
Copy OK

Track 3

Filename C:\Users\wrong.device\Desktop\Pearl Jam – 1993 – Vs. [Japan, Sony, SRCS 6827]\03 – Daughter.wav

Peak level 97.7 %
Track quality 100.0 %
Test CRC 9A5D5556
Copy CRC 9A5D5556
Accurately ripped (confidence 2) [4C02680D]
Copy OK

Track 4

Filename C:\Users\wrong.device\Desktop\Pearl Jam – 1993 – Vs. [Japan, Sony, SRCS 6827]\04 – Glorified G.wav

Peak level 97.7 %
Track quality 99.9 %
Test CRC EA141196
Copy CRC EA141196
Accurately ripped (confidence 2) [698D917A]
Copy OK

Track 5

Filename C:\Users\wrong.device\Desktop\Pearl Jam – 1993 – Vs. [Japan, Sony, SRCS 6827]\05 – Dissident.wav

Peak level 98.2 %
Track quality 100.0 %
Test CRC CAE147ED
Copy CRC CAE147ED
Accurately ripped (confidence 2) [77DD7034]
Copy OK

Track 6

Filename C:\Users\wrong.device\Desktop\Pearl Jam – 1993 – Vs. [Japan, Sony, SRCS 6827]\06 – W.M.A..wav

Peak level 97.7 %
Track quality 100.0 %
Test CRC E30523DE
Copy CRC E30523DE
Track not present in AccurateRip database
Copy OK

Track 7

Filename C:\Users\wrong.device\Desktop\Pearl Jam – 1993 – Vs. [Japan, Sony, SRCS 6827]\07 – Blood.wav

Peak level 97.7 %
Track quality 99.9 %
Test CRC 4A73324C
Copy CRC 4A73324C
Track not present in AccurateRip database
Copy OK

Track 8

Filename C:\Users\wrong.device\Desktop\Pearl Jam – 1993 – Vs. [Japan, Sony, SRCS 6827]\08 – Rearviewmirror.wav

Peak level 97.7 %
Track quality 100.0 %
Test CRC F6E851DF
Copy CRC F6E851DF
Track not present in AccurateRip database
Copy OK

Track 9

Filename C:\Users\wrong.device\Desktop\Pearl Jam – 1993 – Vs. [Japan, Sony, SRCS 6827]\09 – Rats.wav

Peak level 97.7 %
Track quality 99.9 %
Test CRC FCB283BF
Copy CRC FCB283BF
Track not present in AccurateRip database
Copy OK

Track 10

Filename C:\Users\wrong.device\Desktop\Pearl Jam – 1993 – Vs. [Japan, Sony, SRCS 6827]\10 – Elderly Woman Behind The Counter In A Small Town.wav

Peak level 97.7 %
Track quality 100.0 %
Test CRC EE325460
Copy CRC EE325460
Track not present in AccurateRip database
Copy OK

Track 11

Filename C:\Users\wrong.device\Desktop\Pearl Jam – 1993 – Vs. [Japan, Sony, SRCS 6827]\11 – Leash.wav

Peak level 97.7 %
Track quality 99.9 %
Test CRC A859F473
Copy CRC A859F473
Track not present in AccurateRip database
Copy OK

Track 12

Filename C:\Users\wrong.device\Desktop\Pearl Jam – 1993 – Vs. [Japan, Sony, SRCS 6827]\12 – Indifference.wav

Peak level 97.7 %
Track quality 100.0 %
Test CRC 75C52112
Copy CRC 75C52112
Track not present in AccurateRip database
Copy OK

5 track(s) accurately ripped
7 track(s) not present in the AccurateRip database

Some tracks could not be verified as accurate

No errors occurred

End of status report

REM GENRE Rock
REM DATE 1993
REM DISCID 970ADB0C
REM COMMENT “ExactAudioCopy v0.99pb5”
PERFORMER “Pearl Jam”
TITLE “Vs.”
FILE “01 – Go.wav” WAVE
TRACK 01 AUDIO
TITLE “Go”
PERFORMER “Pearl Jam”
INDEX 01 00:00:00
FILE “02 – Animal.wav” WAVE
TRACK 02 AUDIO
TITLE “Animal”
PERFORMER “Pearl Jam”
INDEX 01 00:00:00
FILE “03 – Daughter.wav” WAVE
TRACK 03 AUDIO
TITLE “Daughter”
PERFORMER “Pearl Jam”
INDEX 01 00:00:00
FILE “04 – Glorified G.wav” WAVE
TRACK 04 AUDIO
TITLE “Glorified G”
PERFORMER “Pearl Jam”
INDEX 01 00:00:00
FILE “05 – Dissident.wav” WAVE
TRACK 05 AUDIO
TITLE “Dissident”
PERFORMER “Pearl Jam”
INDEX 01 00:00:00
FILE “06 – W.M.A..wav” WAVE
TRACK 06 AUDIO
TITLE “W.M.A.”
PERFORMER “Pearl Jam”
INDEX 01 00:00:00
FILE “07 – Blood.wav” WAVE
TRACK 07 AUDIO
TITLE “Blood”
PERFORMER “Pearl Jam”
INDEX 01 00:00:00
FILE “08 – Rearviewmirror.wav” WAVE
TRACK 08 AUDIO
TITLE “Rearviewmirror”
PERFORMER “Pearl Jam”
INDEX 01 00:00:00
FILE “09 – Rats.wav” WAVE
TRACK 09 AUDIO
TITLE “Rats”
PERFORMER “Pearl Jam”
INDEX 01 00:00:00
FILE “10 – Elderly Woman Behind The Counter In A Small Town.wav” WAVE
TRACK 10 AUDIO
TITLE “Elderly Woman Behind The Counter In A Small Town”
PERFORMER “Pearl Jam”
INDEX 01 00:00:00
FILE “11 – Leash.wav” WAVE
TRACK 11 AUDIO
TITLE “Leash”
PERFORMER “Pearl Jam”
INDEX 01 00:00:00
FILE “12 – Indifference.wav” WAVE
TRACK 12 AUDIO
TITLE “Indifference”
PERFORMER “Pearl Jam”
INDEX 01 00:00:00


Leave a Reply

Your email address will not be published. Required fields are marked *

This site uses Akismet to reduce spam. Learn how your comment data is processed.