Pearl Jam – Vitalogy (Japanese Edition)




Artist: Pearl Jam
Year: 1994
Genre: Rock
Notes: Discogs
Add. Notes: Japanese Edition
Cover incl.: Yes
Encoder: FLAC
Bitrate: ~800 kBit/s (44.1 kHz/16 Bit/s)
Log & Cue incl.: Yes
Size: 378 MB
Password: “slam” (without ” “)


All Downloads/Hosters are compatible

Download 1
KatFile.com
Rapidgator.net
Turbobit.net
FileFactory.com
Download 2
KatFile.com
Rapidgator.net
Turbobit.net
FileFactory.com

Tracklist:

DIVISION ONE
1 - Last Exit - 2:54
2 - Spin The Black Circle - 2:48
3 - Not For You - 5:52
4 - Tremor Christ - 4:12
5 - Nothingman - 4:35
6 - Whipping - 2:34
DIVISION TWO
7 - Pry, To - 1:03
8 - Corduroy - 4:37
9 - Bugs - 2:45
10 - Satan's Bed - 3:30
11 - Better Man - 4:28
12 - Aye Davanita - 2:58
13 - Immortality - 5:29
14 - Stupid Mop - 7:44

EAC-Log, CUE-Sheed & NFO:

Click to open spoiler
Exact Audio Copy V0.99 prebeta 5 from 4. May 2009

EAC extraction logfile from 31. March 2010, 23:17

Pearl Jam / Vitalogy

Used drive : HL-DT-STDVDRAM GH20NS10 Adapter: 3 ID: 0

Read mode : Secure
Utilize accurate stream : Yes
Defeat audio cache : Yes
Make use of C2 pointers : No

Read offset correction : 667
Overread into Lead-In and Lead-Out : No
Fill up missing offset samples with silence : Yes
Delete leading and trailing silent blocks : No
Null samples used in CRC calculations : Yes
Used interface : Native Win32 interface for Win NT & 2000
Gap handling : Appended to previous track

Used output format : User Defined Encoder
Selected bitrate : 128 kBit/s
Quality : High
Add ID3 tag : No
Command line compressor : C:\Program Files\Exact Audio Copy\Flac\flac.exe
Additional command line options : -8 -V -T “ARTIST=%a” -T “TITLE=%t” -T “ALBUM=%g” -T “DATE=%y” -T “TRACKNUMBER=%n” -T “GENRE=%m” -T “COMMENT=EAC FLAC -8” %s

TOC of the extracted CD

Track | Start | Length | Start sector | End sector
———————————————————
1 | 0:00.00 | 2:54.05 | 0 | 13054
2 | 2:54.05 | 2:47.40 | 13055 | 25619
3 | 5:41.45 | 5:52.30 | 25620 | 52049
4 | 11:34.00 | 4:12.17 | 52050 | 70966
5 | 15:46.17 | 4:35.18 | 70967 | 91609
6 | 20:21.35 | 2:34.07 | 91610 | 103166
7 | 22:55.42 | 1:03.05 | 103167 | 107896
8 | 23:58.47 | 4:37.25 | 107897 | 128696
9 | 28:35.72 | 2:45.05 | 128697 | 141076
10 | 31:21.02 | 3:30.35 | 141077 | 156861
11 | 34:51.37 | 4:28.35 | 156862 | 176996
12 | 39:19.72 | 2:57.63 | 176997 | 190334
13 | 42:17.60 | 5:28.45 | 190335 | 214979
14 | 47:46.30 | 7:43.45 | 214980 | 249749

Track 1

Filename C:\Users\wrong.device\Desktop\Pearl Jam – 1994 – Vitalogy [Japan, Sony, SRCS 7525]\01 – Last Exit.wav

Pre-gap length 0:00:02.00

Peak level 97.7 %
Track quality 100.0 %
Test CRC 27B5F8D0
Copy CRC 27B5F8D0
Accurately ripped (confidence 2) [456326BF]
Copy OK

Track 2

Filename C:\Users\wrong.device\Desktop\Pearl Jam – 1994 – Vitalogy [Japan, Sony, SRCS 7525]\02 – Spin the Black Circle.wav

Peak level 97.7 %
Track quality 100.0 %
Test CRC BECF3862
Copy CRC BECF3862
Accurately ripped (confidence 2) [F1353685]
Copy OK

Track 3

Filename C:\Users\wrong.device\Desktop\Pearl Jam – 1994 – Vitalogy [Japan, Sony, SRCS 7525]\03 – Not for You.wav

Peak level 97.7 %
Track quality 100.0 %
Test CRC 892FFFF9
Copy CRC 892FFFF9
Accurately ripped (confidence 2) [9368F258]
Copy OK

Track 4

Filename C:\Users\wrong.device\Desktop\Pearl Jam – 1994 – Vitalogy [Japan, Sony, SRCS 7525]\04 – Tremor Christ.wav

Peak level 97.7 %
Track quality 100.0 %
Test CRC F61064AE
Copy CRC F61064AE
Accurately ripped (confidence 2) [C3E8D3E7]
Copy OK

Track 5

Filename C:\Users\wrong.device\Desktop\Pearl Jam – 1994 – Vitalogy [Japan, Sony, SRCS 7525]\05 – Nothingman.wav

Peak level 97.7 %
Track quality 100.0 %
Test CRC EB948A6F
Copy CRC EB948A6F
Accurately ripped (confidence 2) [8D498E59]
Copy OK

Track 6

Filename C:\Users\wrong.device\Desktop\Pearl Jam – 1994 – Vitalogy [Japan, Sony, SRCS 7525]\06 – Whipping.wav

Peak level 97.7 %
Track quality 100.0 %
Test CRC 7AF9B90C
Copy CRC 7AF9B90C
Accurately ripped (confidence 2) [94FFBF33]
Copy OK

Track 7

Filename C:\Users\wrong.device\Desktop\Pearl Jam – 1994 – Vitalogy [Japan, Sony, SRCS 7525]\07 – Pry, To.wav

Peak level 90.1 %
Track quality 100.0 %
Test CRC CB74C8E6
Copy CRC CB74C8E6
Accurately ripped (confidence 2) [EE57DAB1]
Copy OK

Track 8

Filename C:\Users\wrong.device\Desktop\Pearl Jam – 1994 – Vitalogy [Japan, Sony, SRCS 7525]\08 – Corduroy.wav

Pre-gap length 0:00:01.76

Peak level 100.0 %
Track quality 100.0 %
Test CRC 4DC9CE49
Copy CRC 4DC9CE49
Accurately ripped (confidence 2) [5AFCFB16]
Copy OK

Track 9

Filename C:\Users\wrong.device\Desktop\Pearl Jam – 1994 – Vitalogy [Japan, Sony, SRCS 7525]\09 – Bugs.wav

Peak level 77.6 %
Track quality 100.0 %
Test CRC 0E1D8F5A
Copy CRC 0E1D8F5A
Accurately ripped (confidence 2) [1A6EFE9B]
Copy OK

Track 10

Filename C:\Users\wrong.device\Desktop\Pearl Jam – 1994 – Vitalogy [Japan, Sony, SRCS 7525]\10 – Satan’s Bed.wav

Peak level 97.7 %
Track quality 100.0 %
Test CRC CB9BA887
Copy CRC CB9BA887
Accurately ripped (confidence 2) [E50EF3FA]
Copy OK

Track 11

Filename C:\Users\wrong.device\Desktop\Pearl Jam – 1994 – Vitalogy [Japan, Sony, SRCS 7525]\11 – Better Man.wav

Pre-gap length 0:00:04.13

Peak level 97.7 %
Track quality 100.0 %
Test CRC 7157A9AB
Copy CRC 7157A9AB
Accurately ripped (confidence 2) [09CF976C]
Copy OK

Track 12

Filename C:\Users\wrong.device\Desktop\Pearl Jam – 1994 – Vitalogy [Japan, Sony, SRCS 7525]\12 – Aye Davanita.wav

Peak level 97.7 %
Track quality 100.0 %
Test CRC 63820EC0
Copy CRC 63820EC0
Accurately ripped (confidence 2) [5C9A4035]
Copy OK

Track 13

Filename C:\Users\wrong.device\Desktop\Pearl Jam – 1994 – Vitalogy [Japan, Sony, SRCS 7525]\13 – Immortality.wav

Pre-gap length 0:00:02.06

Peak level 96.7 %
Track quality 100.0 %
Test CRC 114AADDC
Copy CRC 114AADDC
Accurately ripped (confidence 2) [7EE90339]
Copy OK

Track 14

Filename C:\Users\wrong.device\Desktop\Pearl Jam – 1994 – Vitalogy [Japan, Sony, SRCS 7525]\14 – Stupid Mop.wav

Pre-gap length 0:00:09.64

Peak level 97.7 %
Track quality 99.9 %
Test CRC 67AD0061
Copy CRC 67AD0061
Accurately ripped (confidence 2) [3C9D7E28]
Copy OK

All tracks accurately ripped

No errors occurred

End of status report

REM GENRE Rock
REM DATE 1994
REM DISCID D00D020E
REM COMMENT “ExactAudioCopy v0.99pb5”
PERFORMER “Pearl Jam”
TITLE “Vitalogy”
FILE “01 – Last Exit.wav” WAVE
TRACK 01 AUDIO
TITLE “Last Exit”
PERFORMER “Pearl Jam”
INDEX 01 00:00:00
FILE “02 – Spin the Black Circle.wav” WAVE
TRACK 02 AUDIO
TITLE “Spin the Black Circle”
PERFORMER “Pearl Jam”
INDEX 01 00:00:00
FILE “03 – Not for You.wav” WAVE
TRACK 03 AUDIO
TITLE “Not for You”
PERFORMER “Pearl Jam”
INDEX 01 00:00:00
FILE “04 – Tremor Christ.wav” WAVE
TRACK 04 AUDIO
TITLE “Tremor Christ”
PERFORMER “Pearl Jam”
INDEX 01 00:00:00
FILE “05 – Nothingman.wav” WAVE
TRACK 05 AUDIO
TITLE “Nothingman”
PERFORMER “Pearl Jam”
INDEX 01 00:00:00
FILE “06 – Whipping.wav” WAVE
TRACK 06 AUDIO
TITLE “Whipping”
PERFORMER “Pearl Jam”
INDEX 01 00:00:00
FILE “07 – Pry, To.wav” WAVE
TRACK 07 AUDIO
TITLE “Pry, To”
PERFORMER “Pearl Jam”
INDEX 01 00:00:00
TRACK 08 AUDIO
TITLE “Corduroy”
PERFORMER “Pearl Jam”
INDEX 00 01:01:23
FILE “08 – Corduroy.wav” WAVE
INDEX 01 00:00:00
FILE “09 – Bugs.wav” WAVE
TRACK 09 AUDIO
TITLE “Bugs”
PERFORMER “Pearl Jam”
INDEX 01 00:00:00
FILE “10 – Satan’s Bed.wav” WAVE
TRACK 10 AUDIO
TITLE “Satan’s Bed”
PERFORMER “Pearl Jam”
INDEX 01 00:00:00
TRACK 11 AUDIO
TITLE “Better Man”
PERFORMER “Pearl Jam”
INDEX 00 03:26:25
FILE “11 – Better Man.wav” WAVE
INDEX 01 00:00:00
FILE “12 – Aye Davanita.wav” WAVE
TRACK 12 AUDIO
TITLE “Aye Davanita”
PERFORMER “Pearl Jam”
INDEX 01 00:00:00
TRACK 13 AUDIO
TITLE “Immortality”
PERFORMER “Pearl Jam”
INDEX 00 02:55:58
FILE “13 – Immortality.wav” WAVE
INDEX 01 00:00:00
TRACK 14 AUDIO
TITLE “Stupid Mop”
PERFORMER “Pearl Jam”
INDEX 00 05:18:72
FILE “14 – Stupid Mop.wav” WAVE
INDEX 01 00:00:00


Leave a Reply

Your email address will not be published. Required fields are marked *

Enter the text from the image below
 

This site uses Akismet to reduce spam. Learn how your comment data is processed.