Pearl Jam – Vitalog




Artist: Pearl Jam
Year: 1994
Genre: Rock
Notes: Discogs
Add. Notes:
Cover incl.: Yes
Encoder: FLAC
Bitrate: ~800 kBit/s (44.1 kHz/16 Bit/s)
Log & Cue incl.: Yes
Size: 397,77 MB
Password: “slam” (without ” “)


All Downloads/Hosters are compatible

Download 1
Turbobit.net
NitroFlare.com
KatFile.com
Rapidgator.net
Download 2
Turbobit.net
NitroFlare.com
KatFile.com
Rapidgator.net

Tracklist:

Division One
1 - Last Exit - 2:54
2 - Spin The Black Circle - 2:47
3 - Not For You - 5:52
4 - Tremor Christ - 4:12
5 - Nothingman - 4:35
6 - Whipping - 2:34
Division Two
7 - Pry, To - 1:03
8 - Corduroy - 4:37
9 - Bugs - 2:44
10 - Satan's Bed - 3:30
11 - Better Man - 4:28
12 - Aye Davanita - 2:57
13 - Immortality - 5:28
14 - Stupid Mop - 7:44

EAC-Log, CUE-Sheed & NFO:

Click to open spoiler
Exact Audio Copy V0.99 prebeta 5 from 4. May 2009

EAC extraction logfile from 28. December 2009, 1:15

Pearl Jam / Vitalogy

Used drive : TSSTcorpCDDVDW SH-S222A Adapter: 0 ID: 0

Read mode : Secure
Utilize accurate stream : Yes
Defeat audio cache : Yes
Make use of C2 pointers : No

Read offset correction : 6
Overread into Lead-In and Lead-Out : No
Fill up missing offset samples with silence : Yes
Delete leading and trailing silent blocks : No
Null samples used in CRC calculations : Yes
Used interface : Native Win32 interface for Win NT & 2000
Gap handling : Appended to previous track

Used output format : User Defined Encoder
Selected bitrate : 1024 kBit/s
Quality : High
Add ID3 tag : No
Command line compressor : C:\Program Files (x86)\Exact Audio Copy\FLAC\FLAC.EXE
Additional command line options : -8 -V -T “ARTIST=%a” -T “TITLE=%t” -T “ALBUM=%g” -T “DATE=%y” -T “TRACKNUMBER=%n” -T “GENRE=%m” -T “COMMENT=EAC FLAC -8” %s

TOC of the extracted CD

Track | Start | Length | Start sector | End sector
———————————————————
1 | 0:00.00 | 2:54.47 | 0 | 13096
2 | 2:54.47 | 2:47.38 | 13097 | 25659
3 | 5:42.10 | 5:52.25 | 25660 | 52084
4 | 11:34.35 | 4:12.17 | 52085 | 71001
5 | 15:46.52 | 4:35.20 | 71002 | 91646
6 | 20:21.72 | 2:34.10 | 91647 | 103206
7 | 22:56.07 | 1:03.10 | 103207 | 107941
8 | 23:59.17 | 4:37.20 | 107942 | 128736
9 | 28:36.37 | 2:44.65 | 128737 | 141101
10 | 31:21.27 | 3:30.48 | 141102 | 156899
11 | 34:52.00 | 4:28.30 | 156900 | 177029
12 | 39:20.30 | 2:57.65 | 177030 | 190369
13 | 42:18.20 | 5:28.45 | 190370 | 215014
14 | 47:46.65 | 7:43.22 | 215015 | 249761

Track 1

Filename D:\Audio\Music\Pearl Jam\1994-Vitalogy\01 – Last Exit.wav

Pre-gap length 0:00:02.00

Peak level 97.7 %
Track quality 100.0 %
Test CRC 37FB9C14
Copy CRC 37FB9C14
Accurately ripped (confidence 54) [D700F59E]
Copy OK

Track 2

Filename D:\Audio\Music\Pearl Jam\1994-Vitalogy\02 – Spin the Black Circle.wav

Pre-gap length 0:00:00.05

Peak level 97.7 %
Track quality 100.0 %
Test CRC A6F414A4
Copy CRC A6F414A4
Accurately ripped (confidence 56) [35F7BCA1]
Copy OK

Track 3

Filename D:\Audio\Music\Pearl Jam\1994-Vitalogy\03 – Not for You.wav

Pre-gap length 0:00:00.06

Peak level 97.7 %
Track quality 99.9 %
Test CRC 61A585E0
Copy CRC 61A585E0
Accurately ripped (confidence 56) [C1D3C589]
Copy OK

Track 4

Filename D:\Audio\Music\Pearl Jam\1994-Vitalogy\04 – Tremor Christ.wav

Pre-gap length 0:00:00.73

Peak level 97.7 %
Track quality 100.0 %
Test CRC 12C230F7
Copy CRC 12C230F7
Accurately ripped (confidence 57) [86B63F31]
Copy OK

Track 5

Filename D:\Audio\Music\Pearl Jam\1994-Vitalogy\05 – Nothingman.wav

Pre-gap length 0:00:01.72

Peak level 97.7 %
Track quality 99.9 %
Test CRC 355F42B5
Copy CRC 355F42B5
Accurately ripped (confidence 55) [7A658036]
Copy OK

Track 6

Filename D:\Audio\Music\Pearl Jam\1994-Vitalogy\06 – Whipping.wav

Pre-gap length 0:00:01.72

Peak level 97.7 %
Track quality 100.0 %
Test CRC EE57182D
Copy CRC EE57182D
Accurately ripped (confidence 55) [BBA106F6]
Copy OK

Track 7

Filename D:\Audio\Music\Pearl Jam\1994-Vitalogy\07 – Pry, To.wav

Pre-gap length 0:00:00.56

Peak level 90.1 %
Track quality 100.0 %
Test CRC E4BFD46D
Copy CRC E4BFD46D
Accurately ripped (confidence 55) [51AAA3D0]
Copy OK

Track 8

Filename D:\Audio\Music\Pearl Jam\1994-Vitalogy\08 – Corduroy.wav

Pre-gap length 0:00:02.65

Peak level 100.0 %
Track quality 99.9 %
Test CRC 34A6A192
Copy CRC 34A6A192
Accurately ripped (confidence 55) [F3CFF45F]
Copy OK

Track 9

Filename D:\Audio\Music\Pearl Jam\1994-Vitalogy\09 – Bugs.wav

Pre-gap length 0:00:00.05

Peak level 77.6 %
Track quality 100.0 %
Test CRC 6E67A0F5
Copy CRC 6E67A0F5
Accurately ripped (confidence 56) [5BB50948]
Copy OK

Track 10

Filename D:\Audio\Music\Pearl Jam\1994-Vitalogy\10 – Satan’s Bed.wav

Pre-gap length 0:00:00.25

Peak level 97.7 %
Track quality 100.0 %
Test CRC EE0B2F84
Copy CRC EE0B2F84
Accurately ripped (confidence 54) [3C6E17DF]
Copy OK

Track 11

Filename D:\Audio\Music\Pearl Jam\1994-Vitalogy\11 – Better Man.wav

Pre-gap length 0:00:04.96

Peak level 97.7 %
Track quality 100.0 %
Test CRC F5C77BDC
Copy CRC F5C77BDC
Accurately ripped (confidence 55) [4F0D7796]
Copy OK

Track 12

Filename D:\Audio\Music\Pearl Jam\1994-Vitalogy\12 – Aye Davanita.wav

Pre-gap length 0:00:01.26

Peak level 97.7 %
Track quality 100.0 %
Test CRC 4E11790A
Copy CRC 4E11790A
Accurately ripped (confidence 54) [3677DBED]
Copy OK

Track 13

Filename D:\Audio\Music\Pearl Jam\1994-Vitalogy\13 – Immortality.wav

Pre-gap length 0:00:01.46

Peak level 96.7 %
Track quality 100.0 %
Test CRC A417528A
Copy CRC A417528A
Accurately ripped (confidence 53) [1539FDDF]
Copy OK

Track 14

Filename D:\Audio\Music\Pearl Jam\1994-Vitalogy\14 – Hey Foxymophandlemama, That’s Me.wav

Pre-gap length 0:00:10.60

Peak level 97.7 %
Track quality 100.0 %
Test CRC 8220A8F3
Copy CRC 8220A8F3
Accurately ripped (confidence 51) [F8A2DD3B]
Copy OK

All tracks accurately ripped

No errors occurred

End of status report

REM GENRE “Alt. Rock, Grunge”
REM DATE 1994
REM DISCID CE0D020E
REM COMMENT “ExactAudioCopy v0.99pb5”
PERFORMER “Pearl Jam”
TITLE “Vitalogy”
FILE “01 – Last Exit.wav” WAVE
TRACK 01 AUDIO
TITLE “Last Exit”
PERFORMER “Pearl Jam”
INDEX 01 00:00:00
TRACK 02 AUDIO
TITLE “Spin the Black Circle”
PERFORMER “Pearl Jam”
INDEX 00 02:54:43
FILE “02 – Spin the Black Circle.wav” WAVE
INDEX 01 00:00:00
TRACK 03 AUDIO
TITLE “Not for You”
PERFORMER “Pearl Jam”
INDEX 00 02:47:33
FILE “03 – Not for You.wav” WAVE
INDEX 01 00:00:00
TRACK 04 AUDIO
TITLE “Tremor Christ”
PERFORMER “Pearl Jam”
INDEX 00 05:51:45
FILE “04 – Tremor Christ.wav” WAVE
INDEX 01 00:00:00
TRACK 05 AUDIO
TITLE “Nothingman”
PERFORMER “Pearl Jam”
INDEX 00 04:10:38
FILE “05 – Nothingman.wav” WAVE
INDEX 01 00:00:00
TRACK 06 AUDIO
TITLE “Whipping”
PERFORMER “Pearl Jam”
INDEX 00 04:33:41
FILE “06 – Whipping.wav” WAVE
INDEX 01 00:00:00
TRACK 07 AUDIO
TITLE “Pry, To”
PERFORMER “Pearl Jam”
INDEX 00 02:33:43
FILE “07 – Pry, To.wav” WAVE
INDEX 01 00:00:00
TRACK 08 AUDIO
TITLE “Corduroy”
PERFORMER “Pearl Jam”
INDEX 00 01:00:36
FILE “08 – Corduroy.wav” WAVE
INDEX 01 00:00:00
TRACK 09 AUDIO
TITLE “Bugs”
PERFORMER “Pearl Jam”
INDEX 00 04:37:16
FILE “09 – Bugs.wav” WAVE
INDEX 01 00:00:00
TRACK 10 AUDIO
TITLE “Satan’s Bed”
PERFORMER “Pearl Jam”
INDEX 00 02:44:46
FILE “10 – Satan’s Bed.wav” WAVE
INDEX 01 00:00:00
TRACK 11 AUDIO
TITLE “Better Man”
PERFORMER “Pearl Jam”
INDEX 00 03:25:51
FILE “11 – Better Man.wav” WAVE
INDEX 01 00:00:00
TRACK 12 AUDIO
TITLE “Aye Davanita”
PERFORMER “Pearl Jam”
INDEX 00 04:27:10
FILE “12 – Aye Davanita.wav” WAVE
INDEX 01 00:00:00
TRACK 13 AUDIO
TITLE “Immortality”
PERFORMER “Pearl Jam”
INDEX 00 02:56:30
FILE “13 – Immortality.wav” WAVE
INDEX 01 00:00:00
TRACK 14 AUDIO
TITLE “Hey Foxymophandlemama, That’s Me”
PERFORMER “Pearl Jam”
INDEX 00 05:18:00
FILE “14 – Hey Foxymophandlemama, That’s Me.wav” WAVE
INDEX 01 00:00:00


Leave a Reply

Your email address will not be published. Required fields are marked *

This site uses Akismet to reduce spam. Learn how your comment data is processed.