Pearl Jam – Universal Version – The Complete B-Sides & MTV Unplugged




[Total: 0    Average: 0/5]

Artist: Pearl Jam
Year: 1994
Genre: Punk
Notes: Discogs
Add. Notes:
Cover incl.: Yes
Encoder: FLAC
Bitrate: ~900 kBit/s (44.1 kHz/16 Bit/s)
Log & Cue incl.: Yes
Size: 474,19 MB
Password: “slam” (without ” “)


All Downloads/Hosters are compatible

Download 1
Share-online.biz
KatFile.com
Rapidgator.net
Download 2
Share-online.biz
KatFile.com
Rapidgator.net

Tracklist:

1. State Of Lust And Trust
2. Wash
3. Dirty Frank
4. Oceans (Remix)
5. Footsteps
6. Yellow Ledbetter
7. Breath
8. Why Go (Live)
9. Deep (Live)
10. Alive (Live)
11. Alone
12. Animal (Live)
13. Blood (Live)
14. Yellow Ledbetter (Live)
15. State Of Lust And Trust (Unplugged)
16. Alive (Unplugged)
17. Black (Unplugged)
18. Jeremy (Unplugged)

EAC-Log, CUE-Sheed & NFO:

Click to open spoiler
Exact Audio Copy V0.99 prebeta 5 from 4. May 2009

EAC extraction logfile from 13. March 2010, 11:08

Pearl Jam / Universal Version

Used drive : PIONEER DVD-RW DVR-111D Adapter: 0 ID: 1

Read mode : Secure
Utilize accurate stream : Yes
Defeat audio cache : Yes
Make use of C2 pointers : No

Read offset correction : 48
Overread into Lead-In and Lead-Out : No
Fill up missing offset samples with silence : Yes
Delete leading and trailing silent blocks : No
Null samples used in CRC calculations : Yes
Used interface : Native Win32 interface for Win NT & 2000
Gap handling : Appended to previous track

Used output format : User Defined Encoder
Selected bitrate : 320 kBit/s
Quality : High
Add ID3 tag : No
Command line compressor : C:\Program Files\Exact Audio Copy\Flac\flac.exe
Additional command line options : -V -8 -T “artist=%a” -T “title=%t” -T “album=%g” -T “date=%y” -T “tracknumber=%n” -T “genre=%m” %s

TOC of the extracted CD

Track | Start | Length | Start sector | End sector
———————————————————
1 | 0:00.00 | 3:46.07 | 0 | 16956
2 | 3:46.07 | 3:34.70 | 16957 | 33076
3 | 7:21.02 | 5:39.23 | 33077 | 58524
4 | 13:00.25 | 2:46.47 | 58525 | 71021
5 | 15:46.72 | 3:53.70 | 71022 | 88566
6 | 19:40.67 | 5:04.00 | 88567 | 111366
7 | 24:44.67 | 5:21.60 | 111367 | 135501
8 | 30:06.52 | 3:30.50 | 135502 | 151301
9 | 33:37.27 | 4:23.60 | 151302 | 171086
10 | 38:01.12 | 5:47.10 | 171087 | 197121
11 | 43:48.22 | 3:36.15 | 197122 | 213336
12 | 47:24.37 | 2:48.60 | 213337 | 225996
13 | 50:13.22 | 3:33.23 | 225997 | 241994
14 | 53:46.45 | 5:12.65 | 241995 | 265459
15 | 58:59.35 | 3:50.12 | 265460 | 282721
16 | 62:49.47 | 5:23.68 | 282722 | 307014
17 | 68:13.40 | 5:26.42 | 307015 | 331506
18 | 73:40.07 | 4:24.50 | 331507 | 351356

Track 1

Filename C:\EACrips\Pearl Jam – – Universal Version\01 – State Of Lust And Trust.wav

Pre-gap length 0:00:02.00

Peak level 85.9 %
Track quality 100.0 %
Test CRC 1C1A8A68
Copy CRC 1C1A8A68
Track not present in AccurateRip database
Copy OK

Track 2

Filename C:\EACrips\Pearl Jam – – Universal Version\02 – Wash.wav

Pre-gap length 0:00:02.00

Peak level 83.0 %
Track quality 100.0 %
Test CRC 3DE280D9
Copy CRC 3DE280D9
Track not present in AccurateRip database
Copy OK

Track 3

Filename C:\EACrips\Pearl Jam – – Universal Version\03 – Dirty Frank.wav

Pre-gap length 0:00:02.00

Peak level 81.1 %
Track quality 100.0 %
Test CRC 4679E312
Copy CRC 4679E312
Track not present in AccurateRip database
Copy OK

Track 4

Filename C:\EACrips\Pearl Jam – – Universal Version\04 – Oceans (Remix).wav

Pre-gap length 0:00:02.00

Peak level 79.1 %
Track quality 100.0 %
Test CRC 189B0710
Copy CRC 189B0710
Track not present in AccurateRip database
Copy OK

Track 5

Filename C:\EACrips\Pearl Jam – – Universal Version\05 – Footsteps.wav

Pre-gap length 0:00:02.00

Peak level 70.4 %
Track quality 100.0 %
Test CRC 728939FC
Copy CRC 728939FC
Track not present in AccurateRip database
Copy OK

Track 6

Filename C:\EACrips\Pearl Jam – – Universal Version\06 – Yellow Ledbetter.wav

Pre-gap length 0:00:02.00

Peak level 76.0 %
Track quality 100.0 %
Test CRC D020F1D3
Copy CRC D020F1D3
Track not present in AccurateRip database
Copy OK

Track 7

Filename C:\EACrips\Pearl Jam – – Universal Version\07 – Breath.wav

Pre-gap length 0:00:02.00

Peak level 83.7 %
Track quality 100.0 %
Test CRC CBA194EE
Copy CRC CBA194EE
Track not present in AccurateRip database
Copy OK

Track 8

Filename C:\EACrips\Pearl Jam – – Universal Version\08 – Why Go (Live).wav

Pre-gap length 0:00:02.00

Peak level 76.7 %
Track quality 100.0 %
Test CRC 9851D8A4
Copy CRC 9851D8A4
Track not present in AccurateRip database
Copy OK

Track 9

Filename C:\EACrips\Pearl Jam – – Universal Version\09 – Deep (Live).wav

Pre-gap length 0:00:02.00

Peak level 79.2 %
Track quality 100.0 %
Test CRC C173D063
Copy CRC C173D063
Track not present in AccurateRip database
Copy OK

Track 10

Filename C:\EACrips\Pearl Jam – – Universal Version\10 – Alive (Live).wav

Pre-gap length 0:00:02.00

Peak level 79.9 %
Track quality 100.0 %
Test CRC 3CAD3EA2
Copy CRC 3CAD3EA2
Track not present in AccurateRip database
Copy OK

Track 11

Filename C:\EACrips\Pearl Jam – – Universal Version\11 – Alone.wav

Pre-gap length 0:00:02.00

Peak level 87.7 %
Track quality 100.0 %
Test CRC A719F424
Copy CRC A719F424
Track not present in AccurateRip database
Copy OK

Track 12

Filename C:\EACrips\Pearl Jam – – Universal Version\12 – Animal (Live).wav

Pre-gap length 0:00:02.00

Peak level 77.0 %
Track quality 100.0 %
Test CRC 199F3ED6
Copy CRC 199F3ED6
Track not present in AccurateRip database
Copy OK

Track 13

Filename C:\EACrips\Pearl Jam – – Universal Version\13 – Blood (Live).wav

Pre-gap length 0:00:02.00

Peak level 76.3 %
Track quality 100.0 %
Test CRC 8DB0BBE1
Copy CRC 8DB0BBE1
Track not present in AccurateRip database
Copy OK

Track 14

Filename C:\EACrips\Pearl Jam – – Universal Version\14 – Yellow Ledbetter (Live).wav

Pre-gap length 0:00:02.00

Peak level 72.0 %
Track quality 100.0 %
Test CRC 647FD78E
Copy CRC 647FD78E
Track not present in AccurateRip database
Copy OK

Track 15

Filename C:\EACrips\Pearl Jam – – Universal Version\15 – State Of Love And Trust (Unplugged).wav

Peak level 93.7 %
Track quality 100.0 %
Test CRC FB65C256
Copy CRC FB65C256
Track not present in AccurateRip database
Copy OK

Track 16

Filename C:\EACrips\Pearl Jam – – Universal Version\16 – Alive (Unplugged).wav

Peak level 91.6 %
Track quality 100.0 %
Test CRC 2CE5CD40
Copy CRC 2CE5CD40
Track not present in AccurateRip database
Copy OK

Track 17

Filename C:\EACrips\Pearl Jam – – Universal Version\17 – Black (Unplugged).wav

Pre-gap length 0:00:02.00

Peak level 100.0 %
Track quality 100.0 %
Test CRC C5070E39
Copy CRC C5070E39
Track not present in AccurateRip database
Copy OK

Track 18

Filename C:\EACrips\Pearl Jam – – Universal Version\18 – Jeremy (Unplugged).wav

Peak level 100.0 %
Track quality 99.9 %
Test CRC 920ABD13
Copy CRC 920ABD13
Track not present in AccurateRip database
Copy OK

None of the tracks are present in the AccurateRip database

No errors occurred

End of status report

REM GENRE Grunge
REM DATE 1994
REM DISCID FE124C12
REM COMMENT “ExactAudioCopy v0.99pb5”
PERFORMER “Pearl Jam”
TITLE “Universal Version”
FILE “01 – State Of Lust And Trust.wav” WAVE
TRACK 01 AUDIO
TITLE “State Of Lust And Trust”
PERFORMER “Pearl Jam”
INDEX 01 00:00:00
TRACK 02 AUDIO
TITLE “Wash”
PERFORMER “Pearl Jam”
INDEX 00 03:44:07
FILE “02 – Wash.wav” WAVE
INDEX 01 00:00:00
TRACK 03 AUDIO
TITLE “Dirty Frank”
PERFORMER “Pearl Jam”
INDEX 00 03:32:70
FILE “03 – Dirty Frank.wav” WAVE
INDEX 01 00:00:00
TRACK 04 AUDIO
TITLE “Oceans (Remix)”
PERFORMER “Pearl Jam”
INDEX 00 05:37:23
FILE “04 – Oceans (Remix).wav” WAVE
INDEX 01 00:00:00
TRACK 05 AUDIO
TITLE “Footsteps”
PERFORMER “Pearl Jam”
INDEX 00 02:44:47
FILE “05 – Footsteps.wav” WAVE
INDEX 01 00:00:00
TRACK 06 AUDIO
TITLE “Yellow Ledbetter”
PERFORMER “Pearl Jam”
INDEX 00 03:51:70
FILE “06 – Yellow Ledbetter.wav” WAVE
INDEX 01 00:00:00
TRACK 07 AUDIO
TITLE “Breath”
PERFORMER “Pearl Jam”
INDEX 00 05:02:00
FILE “07 – Breath.wav” WAVE
INDEX 01 00:00:00
TRACK 08 AUDIO
TITLE “Why Go (Live)”
PERFORMER “Pearl Jam”
INDEX 00 05:19:60
FILE “08 – Why Go (Live).wav” WAVE
INDEX 01 00:00:00
TRACK 09 AUDIO
TITLE “Deep (Live)”
PERFORMER “Pearl Jam”
INDEX 00 03:28:50
FILE “09 – Deep (Live).wav” WAVE
INDEX 01 00:00:00
TRACK 10 AUDIO
TITLE “Alive (Live)”
PERFORMER “Pearl Jam”
INDEX 00 04:21:60
FILE “10 – Alive (Live).wav” WAVE
INDEX 01 00:00:00
TRACK 11 AUDIO
TITLE “Alone”
PERFORMER “Pearl Jam”
INDEX 00 05:45:10
FILE “11 – Alone.wav” WAVE
INDEX 01 00:00:00
TRACK 12 AUDIO
TITLE “Animal (Live)”
PERFORMER “Pearl Jam”
INDEX 00 03:34:15
FILE “12 – Animal (Live).wav” WAVE
INDEX 01 00:00:00
TRACK 13 AUDIO
TITLE “Blood (Live)”
PERFORMER “Pearl Jam”
INDEX 00 02:46:60
FILE “13 – Blood (Live).wav” WAVE
INDEX 01 00:00:00
TRACK 14 AUDIO
TITLE “Yellow Ledbetter (Live)”
PERFORMER “Pearl Jam”
INDEX 00 03:31:23
FILE “14 – Yellow Ledbetter (Live).wav” WAVE
INDEX 01 00:00:00
FILE “15 – State Of Love And Trust (Unplugged).wav” WAVE
TRACK 15 AUDIO
TITLE “State Of Love And Trust (Unplugged)”
PERFORMER “Pearl Jam”
INDEX 01 00:00:00
FILE “16 – Alive (Unplugged).wav” WAVE
TRACK 16 AUDIO
TITLE “Alive (Unplugged)”
PERFORMER “Pearl Jam”
INDEX 01 00:00:00
TRACK 17 AUDIO
TITLE “Black (Unplugged)”
PERFORMER “Pearl Jam”
INDEX 00 05:21:68
FILE “17 – Black (Unplugged).wav” WAVE
INDEX 01 00:00:00
FILE “18 – Jeremy (Unplugged).wav” WAVE
TRACK 18 AUDIO
TITLE “Jeremy (Unplugged)”
PERFORMER “Pearl Jam”
INDEX 01 00:00:00


Spread the Download

Leave a Reply

Your email address will not be published. Required fields are marked *

Enter the text from the image below
 

This site uses Akismet to reduce spam. Learn how your comment data is processed.