Pearl Jam – Ten




Artist: Pearl Jam
Year: 1991
Genre: Rock
Notes: Discogs
Add. Notes:
Cover incl.: Yes
Encoder: FLAC
Bitrate: ~1000 kBit/s (44.1 kHz/16 Bit/s)
Log & Cue incl.: Yes
Size: 398,73 MB
Password: “slam” (without ” “)


All Downloads/Hosters are compatible

Download 1
NitroFlare.com
KatFile.com
Turbobit.net
Rapidgator.net
UploadRar.com
Download 2
NitroFlare.com
KatFile.com
Turbobit.net
Rapidgator.net
UploadRar.com

Tracklist:

1 - Once - 3:51
2 - Even Flow - 4:53
3 - Alive - 5:41
4 - Why Go - 3:19
5 - Black - 5:44
6 - Jeremy - 5:18
7 - Oceans - 2:41
8 - Porch - 3:30
9 - Garden - 4:58
10 - Deep - 4:18
11 - Release - 9:03

EAC-Log, CUE-Sheed & NFO:

Click to open spoiler
Exact Audio Copy V0.99 prebeta 5 from 4. May 2009

EAC extraction logfile from 21. March 2010, 10:28

Pearl Jam / Ten

Used drive : TSSTcorpCDDVDW SH-S222A Adapter: 0 ID: 0

Read mode : Secure
Utilize accurate stream : Yes
Defeat audio cache : Yes
Make use of C2 pointers : No

Read offset correction : 6
Overread into Lead-In and Lead-Out : No
Fill up missing offset samples with silence : Yes
Delete leading and trailing silent blocks : No
Null samples used in CRC calculations : Yes
Used interface : Native Win32 interface for Win NT & 2000
Gap handling : Appended to previous track

Used output format : User Defined Encoder
Selected bitrate : 1024 kBit/s
Quality : High
Add ID3 tag : No
Command line compressor : C:\Program Files (x86)\Exact Audio Copy\FLAC\FLAC.EXE
Additional command line options : -8 -V -T “ARTIST=%a” -T “TITLE=%t” -T “ALBUM=%g” -T “DATE=%y” -T “TRACKNUMBER=%n” -T “GENRE=%m” -T “COMMENT=EAC FLAC -8” %s

TOC of the extracted CD

Track | Start | Length | Start sector | End sector
———————————————————
1 | 0:00.00 | 3:51.47 | 0 | 17371
2 | 3:51.47 | 4:53.45 | 17372 | 39391
3 | 8:45.17 | 5:41.15 | 39392 | 64981
4 | 14:26.32 | 3:19.65 | 64982 | 79971
5 | 17:46.22 | 5:43.55 | 79972 | 105751
6 | 23:30.02 | 5:19.15 | 105752 | 129691
7 | 28:49.17 | 2:41.60 | 129692 | 141826
8 | 31:31.02 | 3:30.43 | 141827 | 157619
9 | 35:01.45 | 4:58.72 | 157620 | 180041
10 | 40:00.42 | 4:18.18 | 180042 | 199409
11 | 44:18.60 | 9:05.72 | 199410 | 240356

Track 1

Filename D:\Audio\Music\Pearl Jam\1991-Ten\01 – Once.wav

Pre-gap length 0:00:02.00

Peak level 97.3 %
Track quality 100.0 %
Test CRC 0387E1BC
Copy CRC 0387E1BC
Cannot be verified as accurate (confidence 79) [F39C3FE7], AccurateRip returned [ED7EB841]
Copy OK

Track 2

Filename D:\Audio\Music\Pearl Jam\1991-Ten\02 – Even Flow.wav

Peak level 99.5 %
Track quality 100.0 %
Test CRC EA7C5388
Copy CRC EA7C5388
Cannot be verified as accurate (confidence 79) [6C3549FF], AccurateRip returned [F7204D49]
Copy OK

Track 3

Filename D:\Audio\Music\Pearl Jam\1991-Ten\03 – Alive.wav

Peak level 97.3 %
Track quality 100.0 %
Test CRC C463D654
Copy CRC C463D654
Cannot be verified as accurate (confidence 80) [91213735], AccurateRip returned [EBBD4C80]
Copy OK

Track 4

Filename D:\Audio\Music\Pearl Jam\1991-Ten\04 – Why Go.wav

Peak level 97.3 %
Track quality 100.0 %
Test CRC 9FA6F1EE
Copy CRC 9FA6F1EE
Cannot be verified as accurate (confidence 80) [03CB2CDE], AccurateRip returned [D038CBA3]
Copy OK

Track 5

Filename D:\Audio\Music\Pearl Jam\1991-Ten\05 – Black.wav

Peak level 97.3 %
Track quality 100.0 %
Test CRC EE2AAB22
Copy CRC EE2AAB22
Cannot be verified as accurate (confidence 79) [37DC5AAE], AccurateRip returned [8B758F5C]
Copy OK

Track 6

Filename D:\Audio\Music\Pearl Jam\1991-Ten\06 – Jeremy.wav

Peak level 97.3 %
Track quality 100.0 %
Test CRC 2F8A65BF
Copy CRC 2F8A65BF
Cannot be verified as accurate (confidence 77) [B2F27E21], AccurateRip returned [101FB999]
Copy OK

Track 7

Filename D:\Audio\Music\Pearl Jam\1991-Ten\07 – Oceans.wav

Peak level 97.3 %
Track quality 100.0 %
Test CRC 821815C4
Copy CRC 821815C4
Cannot be verified as accurate (confidence 79) [91D59246], AccurateRip returned [D62CFC33]
Copy OK

Track 8

Filename D:\Audio\Music\Pearl Jam\1991-Ten\08 – Porch.wav

Peak level 97.3 %
Track quality 100.0 %
Test CRC BC1806AF
Copy CRC BC1806AF
Cannot be verified as accurate (confidence 79) [FD7DBF90], AccurateRip returned [FA545F2F]
Copy OK

Track 9

Filename D:\Audio\Music\Pearl Jam\1991-Ten\09 – Garden.wav

Peak level 97.3 %
Track quality 100.0 %
Test CRC A5DF3424
Copy CRC A5DF3424
Cannot be verified as accurate (confidence 80) [6B1461EB], AccurateRip returned [5CE2C6A9]
Copy OK

Track 10

Filename D:\Audio\Music\Pearl Jam\1991-Ten\10 – Deep.wav

Peak level 97.3 %
Track quality 100.0 %
Test CRC 775F8E10
Copy CRC 775F8E10
Cannot be verified as accurate (confidence 78) [324DF6DE], AccurateRip returned [53260ED3]
Copy OK

Track 11

Filename D:\Audio\Music\Pearl Jam\1991-Ten\11 – Release + Master,Slave.wav

Peak level 100.0 %
Track quality 100.0 %
Test CRC B9644DCD
Copy CRC B9644DCD
Cannot be verified as accurate (confidence 75) [C3A4AAC6], AccurateRip returned [47708931]
Copy OK

No tracks could be verified as accurate
You may have a different pressing from the one(s) in the database

No errors occurred

End of status report

REM GENRE Rock
REM DATE 1991
REM DISCID 820C840B
REM COMMENT “ExactAudioCopy v0.99pb5”
PERFORMER “Pearl Jam”
TITLE “Ten”
FILE “01 – Once.wav” WAVE
TRACK 01 AUDIO
TITLE “Once”
PERFORMER “Pearl Jam”
INDEX 01 00:00:00
FILE “02 – Even Flow.wav” WAVE
TRACK 02 AUDIO
TITLE “Even Flow”
PERFORMER “Pearl Jam”
INDEX 01 00:00:00
FILE “03 – Alive.wav” WAVE
TRACK 03 AUDIO
TITLE “Alive”
PERFORMER “Pearl Jam”
INDEX 01 00:00:00
FILE “04 – Why Go.wav” WAVE
TRACK 04 AUDIO
TITLE “Why Go”
PERFORMER “Pearl Jam”
INDEX 01 00:00:00
FILE “05 – Black.wav” WAVE
TRACK 05 AUDIO
TITLE “Black”
PERFORMER “Pearl Jam”
INDEX 01 00:00:00
FILE “06 – Jeremy.wav” WAVE
TRACK 06 AUDIO
TITLE “Jeremy”
PERFORMER “Pearl Jam”
INDEX 01 00:00:00
FILE “07 – Oceans.wav” WAVE
TRACK 07 AUDIO
TITLE “Oceans”
PERFORMER “Pearl Jam”
INDEX 01 00:00:00
FILE “08 – Porch.wav” WAVE
TRACK 08 AUDIO
TITLE “Porch”
PERFORMER “Pearl Jam”
INDEX 01 00:00:00
FILE “09 – Garden.wav” WAVE
TRACK 09 AUDIO
TITLE “Garden”
PERFORMER “Pearl Jam”
INDEX 01 00:00:00
FILE “10 – Deep.wav” WAVE
TRACK 10 AUDIO
TITLE “Deep”
PERFORMER “Pearl Jam”
INDEX 01 00:00:00
FILE “11 – Release + Master,Slave.wav” WAVE
TRACK 11 AUDIO
TITLE “Release + Master/Slave”
PERFORMER “Pearl Jam”
INDEX 01 00:00:00


Leave a Reply

Your email address will not be published. Required fields are marked *

This site uses Akismet to reduce spam. Learn how your comment data is processed.