Pearl Jam – Ten (Japanese Edition)




[Total: 0    Average: 0/5]

Artist: Pearl Jam
Year: 1991
Genre: Rock
Notes: Discogs
Add. Notes: Japanese Edition
Cover incl.: Yes
Encoder: FLAC
Bitrate: ~1000 kBit/s (44.1 kHz/16 Bit/s)
Log & Cue incl.: Yes
Size: 388 MB
Password: “slam” (without ” “)


All Downloads/Hosters are compatible

Download 1
Share-online.biz
KatFile.com
Rapidgator.net
Mexa.sh
Download 2
Share-online.biz
KatFile.com
Rapidgator.net
Mexa.sh

Tracklist:

1 - Once - 3:51
2 - Even Flow - 4:53
3 - Alive - 5:41
4 - Why Go - 3:19
5 - Black - 5:44
6 - Jeremy - 5:18
7 - Oceans - 2:41
8 - Porch - 3:30
9 - Garden - 4:58
10 - Deep - 4:18
11 - Release - 5:06
12 - ? - 3:39
13 - Master/Slave - 3:50

EAC-Log, CUE-Sheed & NFO:

Click to open spoiler
Exact Audio Copy V0.99 prebeta 5 from 4. May 2009

EAC extraction logfile from 1. April 2010, 0:06

Pearl Jam / Ten

Used drive : HL-DT-STDVDRAM GH20NS10 Adapter: 3 ID: 0

Read mode : Secure
Utilize accurate stream : Yes
Defeat audio cache : Yes
Make use of C2 pointers : No

Read offset correction : 667
Overread into Lead-In and Lead-Out : No
Fill up missing offset samples with silence : Yes
Delete leading and trailing silent blocks : No
Null samples used in CRC calculations : Yes
Used interface : Native Win32 interface for Win NT & 2000
Gap handling : Appended to previous track

Used output format : User Defined Encoder
Selected bitrate : 128 kBit/s
Quality : High
Add ID3 tag : No
Command line compressor : C:\Program Files\Exact Audio Copy\Flac\flac.exe
Additional command line options : -8 -V -T “ARTIST=%a” -T “TITLE=%t” -T “ALBUM=%g” -T “DATE=%y” -T “TRACKNUMBER=%n” -T “GENRE=%m” -T “COMMENT=EAC FLAC -8” %s

TOC of the extracted CD

Track | Start | Length | Start sector | End sector
———————————————————
1 | 0:00.00 | 3:51.30 | 0 | 17354
2 | 3:51.30 | 4:53.47 | 17355 | 39376
3 | 8:45.02 | 5:41.15 | 39377 | 64966
4 | 14:26.17 | 3:19.18 | 64967 | 79909
5 | 17:45.35 | 5:44.30 | 79910 | 105739
6 | 23:29.65 | 5:19.12 | 105740 | 129676
7 | 28:49.02 | 2:41.63 | 129677 | 141814
8 | 31:30.65 | 3:30.37 | 141815 | 157601
9 | 35:01.27 | 4:58.73 | 157602 | 180024
10 | 40:00.25 | 4:18.17 | 180025 | 199391
11 | 44:18.42 | 5:06.53 | 199392 | 222394
12 | 49:25.20 | 3:42.00 | 222395 | 239044
13 | 53:07.20 | 3:50.17 | 239045 | 256311

Track 1

Filename C:\Users\wrong.device\Desktop\Pearl Jam – 1991 – Ten [Japan, Sony, SRCS 5634]\01 – Once.wav

Pre-gap length 0:00:02.00

Peak level 92.9 %
Track quality 100.0 %
Test CRC 7EC499E1
Copy CRC 7EC499E1
Accurately ripped (confidence 12) [286AEC51]
Copy OK

Track 2

Filename C:\Users\wrong.device\Desktop\Pearl Jam – 1991 – Ten [Japan, Sony, SRCS 5634]\02 – Even Flow.wav

Peak level 95.1 %
Track quality 100.0 %
Test CRC 92839CDA
Copy CRC 92839CDA
Accurately ripped (confidence 12) [51C40F44]
Copy OK

Track 3

Filename C:\Users\wrong.device\Desktop\Pearl Jam – 1991 – Ten [Japan, Sony, SRCS 5634]\03 – Alive.wav

Peak level 95.1 %
Track quality 100.0 %
Test CRC 13EB6D34
Copy CRC 13EB6D34
Accurately ripped (confidence 12) [6735B053]
Copy OK

Track 4

Filename C:\Users\wrong.device\Desktop\Pearl Jam – 1991 – Ten [Japan, Sony, SRCS 5634]\04 – Why Go.wav

Peak level 95.1 %
Track quality 99.9 %
Test CRC 68C2200F
Copy CRC 68C2200F
Accurately ripped (confidence 12) [7086EDA5]
Copy OK

Track 5

Filename C:\Users\wrong.device\Desktop\Pearl Jam – 1991 – Ten [Japan, Sony, SRCS 5634]\05 – Black.wav

Peak level 95.1 %
Track quality 100.0 %
Test CRC 9DB98293
Copy CRC 9DB98293
Accurately ripped (confidence 12) [0869EFDB]
Copy OK

Track 6

Filename C:\Users\wrong.device\Desktop\Pearl Jam – 1991 – Ten [Japan, Sony, SRCS 5634]\06 – Jeremy.wav

Peak level 95.1 %
Track quality 100.0 %
Test CRC 8EC0009C
Copy CRC 8EC0009C
Accurately ripped (confidence 12) [062D1BC5]
Copy OK

Track 7

Filename C:\Users\wrong.device\Desktop\Pearl Jam – 1991 – Ten [Japan, Sony, SRCS 5634]\07 – Oceans.wav

Peak level 95.1 %
Track quality 100.0 %
Test CRC F8899C62
Copy CRC F8899C62
Accurately ripped (confidence 11) [C6B61809]
Copy OK

Track 8

Filename C:\Users\wrong.device\Desktop\Pearl Jam – 1991 – Ten [Japan, Sony, SRCS 5634]\08 – Porch.wav

Peak level 95.1 %
Track quality 99.9 %
Test CRC C05F64F1
Copy CRC C05F64F1
Accurately ripped (confidence 11) [C00222D1]
Copy OK

Track 9

Filename C:\Users\wrong.device\Desktop\Pearl Jam – 1991 – Ten [Japan, Sony, SRCS 5634]\09 – Garden.wav

Peak level 95.1 %
Track quality 100.0 %
Test CRC 735DC13E
Copy CRC 735DC13E
Accurately ripped (confidence 11) [E6EB5463]
Copy OK

Track 10

Filename C:\Users\wrong.device\Desktop\Pearl Jam – 1991 – Ten [Japan, Sony, SRCS 5634]\10 – Deep.wav

Peak level 95.1 %
Track quality 100.0 %
Test CRC 4CA314C2
Copy CRC 4CA314C2
Accurately ripped (confidence 11) [58D1E3AA]
Copy OK

Track 11

Filename C:\Users\wrong.device\Desktop\Pearl Jam – 1991 – Ten [Japan, Sony, SRCS 5634]\11 – Release.wav

Peak level 97.7 %
Track quality 100.0 %
Test CRC B6B363D2
Copy CRC B6B363D2
Accurately ripped (confidence 11) [DCCF22AA]
Copy OK

Track 12

Filename C:\Users\wrong.device\Desktop\Pearl Jam – 1991 – Ten [Japan, Sony, SRCS 5634]\12 – I’ve Got A Feeling.wav

Peak level 95.9 %
Track quality 100.0 %
Test CRC BE843148
Copy CRC BE843148
Accurately ripped (confidence 10) [8C868C13]
Copy OK

Track 13

Filename C:\Users\wrong.device\Desktop\Pearl Jam – 1991 – Ten [Japan, Sony, SRCS 5634]\13 – Master-Slave.wav

Peak level 87.9 %
Track quality 100.0 %
Test CRC F0176E76
Copy CRC F0176E76
Accurately ripped (confidence 10) [41C3D2A6]
Copy OK

All tracks accurately ripped

No errors occurred

End of status report

REM GENRE Rock
REM DATE 1991
REM DISCID AC0D590D
REM COMMENT “ExactAudioCopy v0.99pb5”
PERFORMER “Pearl Jam”
TITLE “Ten”
FILE “01 – Once.wav” WAVE
TRACK 01 AUDIO
TITLE “Once”
PERFORMER “Pearl Jam”
INDEX 01 00:00:00
FILE “02 – Even Flow.wav” WAVE
TRACK 02 AUDIO
TITLE “Even Flow”
PERFORMER “Pearl Jam”
INDEX 01 00:00:00
FILE “03 – Alive.wav” WAVE
TRACK 03 AUDIO
TITLE “Alive”
PERFORMER “Pearl Jam”
INDEX 01 00:00:00
FILE “04 – Why Go.wav” WAVE
TRACK 04 AUDIO
TITLE “Why Go”
PERFORMER “Pearl Jam”
INDEX 01 00:00:00
FILE “05 – Black.wav” WAVE
TRACK 05 AUDIO
TITLE “Black”
PERFORMER “Pearl Jam”
INDEX 01 00:00:00
FILE “06 – Jeremy.wav” WAVE
TRACK 06 AUDIO
TITLE “Jeremy”
PERFORMER “Pearl Jam”
INDEX 01 00:00:00
FILE “07 – Oceans.wav” WAVE
TRACK 07 AUDIO
TITLE “Oceans”
PERFORMER “Pearl Jam”
INDEX 01 00:00:00
FILE “08 – Porch.wav” WAVE
TRACK 08 AUDIO
TITLE “Porch”
PERFORMER “Pearl Jam”
INDEX 01 00:00:00
FILE “09 – Garden.wav” WAVE
TRACK 09 AUDIO
TITLE “Garden”
PERFORMER “Pearl Jam”
INDEX 01 00:00:00
FILE “10 – Deep.wav” WAVE
TRACK 10 AUDIO
TITLE “Deep”
PERFORMER “Pearl Jam”
INDEX 01 00:00:00
FILE “11 – Release.wav” WAVE
TRACK 11 AUDIO
TITLE “Release”
PERFORMER “Pearl Jam”
INDEX 01 00:00:00
FILE “12 – I’ve Got A Feeling.wav” WAVE
TRACK 12 AUDIO
TITLE “I’ve Got A Feeling”
PERFORMER “Pearl Jam”
INDEX 01 00:00:00
FILE “13 – Master-Slave.wav” WAVE
TRACK 13 AUDIO
TITLE “Master/Slave”
PERFORMER “Pearl Jam”
INDEX 01 00:00:00


Spread the Download

Leave a Reply

Your email address will not be published. Required fields are marked *

Enter the text from the image below
 

This site uses Akismet to reduce spam. Learn how your comment data is processed.