Pearl Jam – Ten (Extended Edition)




Artist: Pearl Jam
Year: 1992
Genre: Rock
Notes: Discogs
Add. Notes: Extended Edition
Cover incl.: Yes
Encoder: FLAC
Bitrate: ~900 kBit/s (44.1 kHz/16 Bit/s)
Log & Cue incl.: Yes
Size: 509 MB
Password: “slam” (without ” “)


All Downloads/Hosters are compatible

Download 1
KatFile.com
Rapidgator.net
Turbobit.net
FileFactory.com
Download 2
KatFile.com
Rapidgator.net
Turbobit.net
FileFactory.com

Tracklist:

1 - Once - 3:51
2 - Even Flow - 4:53
3 - Alive - 5:40
4 - Why Go - 3:19
5 - Black - 5:43
6 - Jeremy - 5:18
7 - Oceans - 2:41
8 - Porch - 3:30
9 - Garden - 4:58
10 - Deep - 4:18
11 - Release - 6:30
12 - Alive (Live) - 4:55
13 - Wash - 3:34
14 - Dirty Frank - 5:32

EAC-Log, CUE-Sheed & NFO:

Click to open spoiler
Exact Audio Copy V0.99 prebeta 4 from 23. January 2008

EAC extraction logfile from 27. January 2009, 23:54

Pearl Jam / Ten

Used drive : Optiarc DVD RW AD-7200S Adapter: 3 ID: 0

Read mode : Secure
Utilize accurate stream : Yes
Defeat audio cache : Yes
Make use of C2 pointers : No

Read offset correction : 48
Overread into Lead-In and Lead-Out : No
Fill up missing offset samples with silence : Yes
Delete leading and trailing silent blocks : No
Null samples used in CRC calculations : Yes
Used interface : Native Win32 interface for Win NT & 2000
Gap handling : Appended to previous track

Used output format : User Defined Encoder
Selected bitrate : 768 kBit/s
Quality : High
Add ID3 tag : No
Command line compressor : E:\Program Files\Exact Audio Copy\FLAC\FLAC.EXE
Additional command line options : –best -T “ARTIST=%a” -T “TITLE=%t” -T “ALBUM=%g” -T “DATE=%y” -T “TRACKNUMBER=%n” -T “GENRE=%m” %s

TOC of the extracted CD

Track | Start | Length | Start sector | End sector
———————————————————
1 | 0:00.00 | 3:51.50 | 0 | 17374
2 | 3:51.50 | 4:53.50 | 17375 | 39399
3 | 8:45.25 | 5:41.12 | 39400 | 64986
4 | 14:26.37 | 3:19.28 | 64987 | 79939
5 | 17:45.65 | 5:44.15 | 79940 | 105754
6 | 23:30.05 | 5:18.45 | 105755 | 129649
7 | 28:48.50 | 2:41.60 | 129650 | 141784
8 | 31:30.35 | 3:30.40 | 141785 | 157574
9 | 35:01.00 | 4:58.72 | 157575 | 179996
10 | 39:59.72 | 4:18.08 | 179997 | 199354
11 | 44:18.05 | 9:03.32 | 199355 | 240111
12 | 53:21.37 | 4:54.05 | 240112 | 262166
13 | 58:15.42 | 3:33.15 | 262167 | 278156
14 | 61:48.57 | 5:38.18 | 278157 | 303524

Track 1

Filename C:\Моё\Music\Pearl Jam\(1991) Ten\Pearl Jam – Ten (UK-German) FLAC\\Pearl Jam\Ten\01-Once.wav

Pre-gap length 0:00:02.00

Peak level 95.0 %
Track quality 100.0 %
Test CRC E2BBE076
Copy CRC E2BBE076
Cannot be verified as accurate (confidence 41) [05C6A6A1], AccurateRip returned [DCC83267]
Copy OK

Track 2

Filename C:\Моё\Music\Pearl Jam\(1991) Ten\Pearl Jam – Ten (UK-German) FLAC\\Pearl Jam\Ten\02-Even Flow.wav

Peak level 95.1 %
Track quality 100.0 %
Test CRC C782649B
Copy CRC C782649B
Cannot be verified as accurate (confidence 40) [9B74EFAE], AccurateRip returned [1E79FE2A]
Copy OK

Track 3

Filename C:\Моё\Music\Pearl Jam\(1991) Ten\Pearl Jam – Ten (UK-German) FLAC\\Pearl Jam\Ten\03-Alive.wav

Peak level 92.9 %
Track quality 100.0 %
Test CRC 1B0C1193
Copy CRC 1B0C1193
Cannot be verified as accurate (confidence 41) [978A0D5C], AccurateRip returned [9BBA4100]
Copy OK

Track 4

Filename C:\Моё\Music\Pearl Jam\(1991) Ten\Pearl Jam – Ten (UK-German) FLAC\\Pearl Jam\Ten\04-Why Go.wav

Peak level 92.9 %
Track quality 100.0 %
Test CRC 86C408A6
Copy CRC 86C408A6
Cannot be verified as accurate (confidence 41) [BBA389B2], AccurateRip returned [97E25A49]
Copy OK

Track 5

Filename C:\Моё\Music\Pearl Jam\(1991) Ten\Pearl Jam – Ten (UK-German) FLAC\\Pearl Jam\Ten\05-Black.wav

Peak level 92.9 %
Track quality 100.0 %
Test CRC B97E14AD
Copy CRC B97E14AD
Cannot be verified as accurate (confidence 40) [6DE47C65], AccurateRip returned [DB351BBE]
Copy OK

Track 6

Filename C:\Моё\Music\Pearl Jam\(1991) Ten\Pearl Jam – Ten (UK-German) FLAC\\Pearl Jam\Ten\06-Jeremy.wav

Peak level 92.9 %
Track quality 100.0 %
Test CRC EBEDC757
Copy CRC EBEDC757
Cannot be verified as accurate (confidence 40) [0E452D93], AccurateRip returned [769F0181]
Copy OK

Track 7

Filename C:\Моё\Music\Pearl Jam\(1991) Ten\Pearl Jam – Ten (UK-German) FLAC\\Pearl Jam\Ten\07-Oceans.wav

Peak level 92.9 %
Track quality 100.0 %
Test CRC D8B6AF7B
Copy CRC D8B6AF7B
Cannot be verified as accurate (confidence 39) [80747B1C], AccurateRip returned [383F5718]
Copy OK

Track 8

Filename C:\Моё\Music\Pearl Jam\(1991) Ten\Pearl Jam – Ten (UK-German) FLAC\\Pearl Jam\Ten\08-Porch.wav

Peak level 92.9 %
Track quality 99.9 %
Test CRC E36C2C1C
Copy CRC E36C2C1C
Cannot be verified as accurate (confidence 40) [B1A1A437], AccurateRip returned [7BC3B503]
Copy OK

Track 9

Filename C:\Моё\Music\Pearl Jam\(1991) Ten\Pearl Jam – Ten (UK-German) FLAC\\Pearl Jam\Ten\09-Garden.wav

Peak level 92.9 %
Track quality 100.0 %
Test CRC 8C78A136
Copy CRC 8C78A136
Cannot be verified as accurate (confidence 41) [9FA2CFBA], AccurateRip returned [DD7B1ADF]
Copy OK

Track 10

Filename C:\Моё\Music\Pearl Jam\(1991) Ten\Pearl Jam – Ten (UK-German) FLAC\\Pearl Jam\Ten\10-Deep.wav

Peak level 92.9 %
Track quality 100.0 %
Test CRC E241E47E
Copy CRC E241E47E
Cannot be verified as accurate (confidence 39) [17E645C4], AccurateRip returned [109CB000]
Copy OK

Track 11

Filename C:\Моё\Music\Pearl Jam\(1991) Ten\Pearl Jam – Ten (UK-German) FLAC\\Pearl Jam\Ten\11-Release.wav

Peak level 95.5 %
Track quality 100.0 %
Test CRC 5401F86A
Copy CRC 5401F86A
Cannot be verified as accurate (confidence 39) [C1F323E9], AccurateRip returned [10C0C2B0]
Copy OK

Track 12

Filename C:\Моё\Music\Pearl Jam\(1991) Ten\Pearl Jam – Ten (UK-German) FLAC\\Pearl Jam\Ten\12-Alive (Live).wav

Peak level 95.5 %
Track quality 100.0 %
Test CRC 385D2122
Copy CRC 385D2122
Cannot be verified as accurate (confidence 41) [B7F80536], AccurateRip returned [2E46DBAB]
Copy OK

Track 13

Filename C:\Моё\Music\Pearl Jam\(1991) Ten\Pearl Jam – Ten (UK-German) FLAC\\Pearl Jam\Ten\13-Wash.wav

Peak level 89.6 %
Track quality 99.9 %
Test CRC 6B881FCE
Copy CRC 6B881FCE
Cannot be verified as accurate (confidence 42) [B9476288], AccurateRip returned [B173ACF1]
Copy OK

Track 14

Filename C:\Моё\Music\Pearl Jam\(1991) Ten\Pearl Jam – Ten (UK-German) FLAC\\Pearl Jam\Ten\14-Dirty Frank.wav

Peak level 98.2 %
Track quality 100.0 %
Test CRC 54044306
Copy CRC 54044306
Cannot be verified as accurate (confidence 38) [450FAC6F], AccurateRip returned [33360CC8]
Copy OK

No tracks could be verified as accurate
You may have a different pressing from the one(s) in the database

No errors occurred

End of status report

REM DATE 1991
REM DISCID A80FCF0E
REM COMMENT “ExactAudioCopy v0.99pb4”
PERFORMER “Pearl Jam”
TITLE “Ten”
FILE “01-Once.wav” WAVE
TRACK 01 AUDIO
TITLE “Once”
PERFORMER “Pearl Jam”
INDEX 01 00:00:00
FILE “02-Even Flow.wav” WAVE
TRACK 02 AUDIO
TITLE “Even Flow”
PERFORMER “Pearl Jam”
INDEX 01 00:00:00
FILE “03-Alive.wav” WAVE
TRACK 03 AUDIO
TITLE “Alive”
PERFORMER “Pearl Jam”
INDEX 01 00:00:00
FILE “04-Why Go.wav” WAVE
TRACK 04 AUDIO
TITLE “Why Go”
PERFORMER “Pearl Jam”
INDEX 01 00:00:00
FILE “05-Black.wav” WAVE
TRACK 05 AUDIO
TITLE “Black”
PERFORMER “Pearl Jam”
INDEX 01 00:00:00
FILE “06-Jeremy.wav” WAVE
TRACK 06 AUDIO
TITLE “Jeremy”
PERFORMER “Pearl Jam”
INDEX 01 00:00:00
FILE “07-Oceans.wav” WAVE
TRACK 07 AUDIO
TITLE “Oceans”
PERFORMER “Pearl Jam”
INDEX 01 00:00:00
FILE “08-Porch.wav” WAVE
TRACK 08 AUDIO
TITLE “Porch”
PERFORMER “Pearl Jam”
INDEX 01 00:00:00
FILE “09-Garden.wav” WAVE
TRACK 09 AUDIO
TITLE “Garden”
PERFORMER “Pearl Jam”
INDEX 01 00:00:00
FILE “10-Deep.wav” WAVE
TRACK 10 AUDIO
TITLE “Deep”
PERFORMER “Pearl Jam”
INDEX 01 00:00:00
FILE “11-Release.wav” WAVE
TRACK 11 AUDIO
TITLE “Release”
PERFORMER “Pearl Jam”
INDEX 01 00:00:00
FILE “12-Alive (Live).wav” WAVE
TRACK 12 AUDIO
TITLE “Alive (Live)”
PERFORMER “Pearl Jam”
INDEX 01 00:00:00
FILE “13-Wash.wav” WAVE
TRACK 13 AUDIO
TITLE “Wash”
PERFORMER “Pearl Jam”
INDEX 01 00:00:00
FILE “14-Dirty Frank.wav” WAVE
TRACK 14 AUDIO
TITLE “Dirty Frank”
PERFORMER “Pearl Jam”
INDEX 01 00:00:00


Leave a Reply

Your email address will not be published. Required fields are marked *

Enter the text from the image below
 

This site uses Akismet to reduce spam. Learn how your comment data is processed.