Pearl Jam – Ten (Deluxe Edition)




[Total: 0    Average: 0/5]

Artist: Pearl Jam
Year: 2009
Genre: Punk
Notes: Discogs
Add. Notes: Deluxe Edition
Cover incl.: Yes
Encoder: FLAC
Bitrate: ~1000 kBit/s (44.1 kHz/16 Bit/s)
Log & Cue incl.: Yes
Size: 1053,3 MB
Password: “slam” (without ” “)


All Downloads/Hosters are compatible

Download 1
Share-online.biz
KatFile.com
Rapidgator.net
NitroFlare.com
Download 2
Share-online.biz
KatFile.com
Rapidgator.net
NitroFlare.com

Tracklist:

CD 1: Ten (Remastered)
1 - Once - 3:51
2 - Even Flow - 4:53
3 - Alive - 5:40
4 - Why Go - 3:19
5 - Black - 5:48
6 - Jeremy - 5:18
7 - Oceans - 2:41
8 - Porch - 3:30
9 - Garden - 4:58
10 - Deep - 4:18
11 - Release - 6:30

CD 2: Ten Redux (Remix)
1 - Once - 3:51
2 - Even Flow - 4:53
3 - Alive - 5:41
4 - Why Go - 3:19
5 - Black - 5:39
6 - Jeremy - 5:17
7 - Oceans - 2:41
8 - Porch - 3:30
9 - Garden - 4:58
10 - Deep - 4:18
11 - Release - 8:59
Bonus Tracks
12 - Brother - 3:59
13 - Just A Girl - 5:02
14 - Breath And A Scream - 5:58
15 - State Of Love And Trust - 4:48
16 - 2,000 Mile Blues - 3:58
17 - Evil Little Goat - 1:30

EAC-Log, CUE-Sheed & NFO:

Click to open spoiler
Exact Audio Copy V1.0 beta 1 from 15. November 2010

EAC extraction logfile from 28. December 2010, 1:01

Pearl Jam / Ten (Deluxe Edition) CD1

Used drive : TSSTcorpCDDVDW SH-S222A Adapter: 0 ID: 0

Read mode : Secure
Utilize accurate stream : Yes
Defeat audio cache : Yes
Make use of C2 pointers : No

Read offset correction : 6
Overread into Lead-In and Lead-Out : No
Fill up missing offset samples with silence : Yes
Delete leading and trailing silent blocks : No
Null samples used in CRC calculations : Yes
Used interface : Native Win32 interface for Win NT & 2000
Gap handling : Appended to previous track

Used output format : User Defined Encoder
Selected bitrate : 1024 kBit/s
Quality : High
Add ID3 tag : No
Command line compressor : C:\Program Files (x86)\Exact Audio Copy\FLAC\FLAC.EXE
Additional command line options : -8 -V -T “ARTIST=%a” -T “TITLE=%t” -T “ALBUM=%g” -T “DATE=%y” -T “TRACKNUMBER=%n” -T “TOTALTRACKS=%x” -T “GENRE=%m” -T “COMMENT=EAC V1.0 beta 1, Secure Mode, Test & Copy, AccurateRip, FLAC -8” %s

TOC of the extracted CD

Track | Start | Length | Start sector | End sector
———————————————————
1 | 0:00.00 | 3:52.15 | 0 | 17414
2 | 3:52.15 | 4:52.43 | 17415 | 39357
3 | 8:44.58 | 5:41.12 | 39358 | 64944
4 | 14:25.70 | 3:20.02 | 64945 | 79946
5 | 17:45.72 | 5:42.36 | 79947 | 105632
6 | 23:28.33 | 5:18.17 | 105633 | 129499
7 | 28:46.50 | 2:41.67 | 129500 | 141641
8 | 31:28.42 | 3:30.39 | 141642 | 157430
9 | 34:59.06 | 4:59.08 | 157431 | 179863
10 | 39:58.14 | 4:18.15 | 179864 | 199228
11 | 44:16.29 | 9:08.01 | 199229 | 240329

Track 1

Filename E:\Pearl Jam\2009 – Ten (Deluxe Edition) CD1\01 – Once.wav

Pre-gap length 0:00:02.00

Peak level 100.0 %
Extraction speed 4.9 X
Track quality 100.0 %
Test CRC 2885E35C
Copy CRC 2885E35C
Accurately ripped (confidence 4) [A75FE23D]
Copy OK

Track 2

Filename E:\Pearl Jam\2009 – Ten (Deluxe Edition) CD1\02 – Even Flow.wav

Peak level 100.0 %
Extraction speed 4.6 X
Track quality 99.9 %
Test CRC 74881DA6
Copy CRC 74881DA6
Accurately ripped (confidence 4) [0B7CD705]
Copy OK

Track 3

Filename E:\Pearl Jam\2009 – Ten (Deluxe Edition) CD1\03 – Alive.wav

Peak level 100.0 %
Extraction speed 6.2 X
Track quality 100.0 %
Test CRC 1F9D9B75
Copy CRC 1F9D9B75
Accurately ripped (confidence 4) [8FFB9218]
Copy OK

Track 4

Filename E:\Pearl Jam\2009 – Ten (Deluxe Edition) CD1\04 – Why Go.wav

Peak level 100.0 %
Extraction speed 6.1 X
Track quality 100.0 %
Test CRC 9EC4C5D5
Copy CRC 9EC4C5D5
Accurately ripped (confidence 4) [08232C67]
Copy OK

Track 5

Filename E:\Pearl Jam\2009 – Ten (Deluxe Edition) CD1\05 – Black.wav

Peak level 99.4 %
Extraction speed 7.0 X
Track quality 100.0 %
Test CRC 7BBF7A51
Copy CRC 7BBF7A51
Accurately ripped (confidence 4) [8E1B2688]
Copy OK

Track 6

Filename E:\Pearl Jam\2009 – Ten (Deluxe Edition) CD1\06 – Jeremy.wav

Peak level 100.0 %
Extraction speed 7.4 X
Track quality 100.0 %
Test CRC C5A3A456
Copy CRC C5A3A456
Accurately ripped (confidence 4) [36F0EAAC]
Copy OK

Track 7

Filename E:\Pearl Jam\2009 – Ten (Deluxe Edition) CD1\07 – Oceans.wav

Peak level 99.0 %
Extraction speed 6.9 X
Track quality 100.0 %
Test CRC B982245F
Copy CRC B982245F
Accurately ripped (confidence 4) [D0737045]
Copy OK

Track 8

Filename E:\Pearl Jam\2009 – Ten (Deluxe Edition) CD1\08 – Porch.wav

Peak level 100.0 %
Extraction speed 5.8 X
Track quality 99.9 %
Test CRC 46A6678D
Copy CRC 46A6678D
Accurately ripped (confidence 4) [815221A7]
Copy OK

Track 9

Filename E:\Pearl Jam\2009 – Ten (Deluxe Edition) CD1\09 – Garden.wav

Peak level 99.6 %
Extraction speed 8.1 X
Track quality 100.0 %
Test CRC 74BAA205
Copy CRC 74BAA205
Accurately ripped (confidence 4) [C00F0810]
Copy OK

Track 10

Filename E:\Pearl Jam\2009 – Ten (Deluxe Edition) CD1\10 – Deep.wav

Peak level 100.0 %
Extraction speed 8.3 X
Track quality 100.0 %
Test CRC C0F2B45D
Copy CRC C0F2B45D
Accurately ripped (confidence 4) [26B64877]
Copy OK

Track 11

Filename E:\Pearl Jam\2009 – Ten (Deluxe Edition) CD1\11 – Release.wav

Peak level 100.0 %
Extraction speed 9.4 X
Track quality 100.0 %
Test CRC FB95A7D8
Copy CRC FB95A7D8
Accurately ripped (confidence 4) [21BFEC5D]
Copy OK

All tracks accurately ripped

No errors occurred

End of status report

==== Log checksum BB064405E6774326FED319C0E1B3AF1DAA0ABCAC7FE3429A70599CAB951FB604 ====

Exact Audio Copy V1.0 beta 1 from 15. November 2010

EAC extraction logfile from 28. December 2010, 1:26

Pearl Jam / Ten Redux (Deluxe Edition) CD2

Used drive : TSSTcorpCDDVDW SH-S222A Adapter: 0 ID: 0

Read mode : Secure
Utilize accurate stream : Yes
Defeat audio cache : Yes
Make use of C2 pointers : No

Read offset correction : 6
Overread into Lead-In and Lead-Out : No
Fill up missing offset samples with silence : Yes
Delete leading and trailing silent blocks : No
Null samples used in CRC calculations : Yes
Used interface : Native Win32 interface for Win NT & 2000
Gap handling : Appended to previous track

Used output format : User Defined Encoder
Selected bitrate : 1024 kBit/s
Quality : High
Add ID3 tag : No
Command line compressor : C:\Program Files (x86)\Exact Audio Copy\FLAC\FLAC.EXE
Additional command line options : -8 -V -T “ARTIST=%a” -T “TITLE=%t” -T “ALBUM=%g” -T “DATE=%y” -T “TRACKNUMBER=%n” -T “TOTALTRACKS=%x” -T “GENRE=%m” -T “COMMENT=EAC V1.0 beta 1, Secure Mode, Test & Copy, AccurateRip, FLAC -8” %s

TOC of the extracted CD

Track | Start | Length | Start sector | End sector
———————————————————
1 | 0:00.00 | 3:51.69 | 0 | 17393
2 | 3:51.69 | 4:53.07 | 17394 | 39375
3 | 8:45.01 | 5:40.39 | 39376 | 64914
4 | 14:25.40 | 3:18.68 | 64915 | 79832
5 | 17:44.33 | 5:38.57 | 79833 | 105239
6 | 23:23.15 | 5:16.44 | 105240 | 128983
7 | 28:39.59 | 2:41.37 | 128984 | 141095
8 | 31:21.21 | 3:30.14 | 141096 | 156859
9 | 34:51.35 | 4:58.28 | 156860 | 179237
10 | 39:49.63 | 4:17.59 | 179238 | 198571
11 | 44:07.47 | 8:59.32 | 198572 | 239028
12 | 53:07.04 | 3:59.67 | 239029 | 257020
13 | 57:06.71 | 5:02.45 | 257021 | 279715
14 | 62:09.41 | 5:58.66 | 279716 | 306631
15 | 68:08.32 | 4:48.72 | 306632 | 328303
16 | 72:57.29 | 3:58.30 | 328304 | 346183
17 | 76:55.59 | 1:29.46 | 346184 | 352904

Track 1

Filename E:\Pearl Jam\2009 – Ten Redux (Deluxe Edition) CD2\01 – Once (2008 Brendan O’Brien Mix).wav

Pre-gap length 0:00:02.00

Peak level 100.0 %
Extraction speed 4.9 X
Track quality 100.0 %
Test CRC 907FC03F
Copy CRC 907FC03F
Accurately ripped (confidence 4) [398500DA]
Copy OK

Track 2

Filename E:\Pearl Jam\2009 – Ten Redux (Deluxe Edition) CD2\02 – Even Flow (2008 Brendan O’Brien Mix).wav

Peak level 100.0 %
Extraction speed 5.6 X
Track quality 100.0 %
Test CRC E688A7E5
Copy CRC E688A7E5
Accurately ripped (confidence 4) [5D547119]
Copy OK

Track 3

Filename E:\Pearl Jam\2009 – Ten Redux (Deluxe Edition) CD2\03 – Alive (2008 Brendan O’Brien Mix).wav

Peak level 100.0 %
Extraction speed 6.2 X
Track quality 100.0 %
Test CRC FAF5418D
Copy CRC FAF5418D
Accurately ripped (confidence 4) [3EC473AD]
Copy OK

Track 4

Filename E:\Pearl Jam\2009 – Ten Redux (Deluxe Edition) CD2\04 – Why Go (2008 Brendan O’Brien Mix).wav

Peak level 100.0 %
Extraction speed 4.8 X
Track quality 99.9 %
Test CRC CF168E67
Copy CRC CF168E67
Accurately ripped (confidence 4) [584DCBD8]
Copy OK

Track 5

Filename E:\Pearl Jam\2009 – Ten Redux (Deluxe Edition) CD2\05 – Black (2008 Brendan O’Brien Mix).wav

Peak level 100.0 %
Extraction speed 7.0 X
Track quality 100.0 %
Test CRC 7FEF31A6
Copy CRC 7FEF31A6
Accurately ripped (confidence 4) [586747EA]
Copy OK

Track 6

Filename E:\Pearl Jam\2009 – Ten Redux (Deluxe Edition) CD2\06 – Jeremy (2008 Brendan O’Brien Mix).wav

Peak level 100.0 %
Extraction speed 7.4 X
Track quality 100.0 %
Test CRC C9CBCA56
Copy CRC C9CBCA56
Accurately ripped (confidence 4) [DCF96958]
Copy OK

Track 7

Filename E:\Pearl Jam\2009 – Ten Redux (Deluxe Edition) CD2\07 – Oceans (2008 Brendan O’Brien Mix).wav

Pre-gap length 0:00:00.46

Peak level 100.0 %
Extraction speed 6.9 X
Track quality 100.0 %
Test CRC ECEEEF6C
Copy CRC ECEEEF6C
Accurately ripped (confidence 4) [72D16B97]
Copy OK

Track 8

Filename E:\Pearl Jam\2009 – Ten Redux (Deluxe Edition) CD2\08 – Porch (2008 Brendan O’Brien Mix).wav

Peak level 100.0 %
Extraction speed 5.8 X
Track quality 99.9 %
Test CRC BFBE69D4
Copy CRC BFBE69D4
Accurately ripped (confidence 4) [24955654]
Copy OK

Track 9

Filename E:\Pearl Jam\2009 – Ten Redux (Deluxe Edition) CD2\09 – Garden (2008 Brendan O’Brien Mix).wav

Peak level 100.0 %
Extraction speed 8.1 X
Track quality 100.0 %
Test CRC 209BFFF6
Copy CRC 209BFFF6
Accurately ripped (confidence 4) [DF298E76]
Copy OK

Track 10

Filename E:\Pearl Jam\2009 – Ten Redux (Deluxe Edition) CD2\10 – Deep (2008 Brendan O’Brien Mix).wav

Peak level 100.0 %
Extraction speed 8.2 X
Track quality 100.0 %
Test CRC 08A498A2
Copy CRC 08A498A2
Accurately ripped (confidence 4) [882ED5AA]
Copy OK

Track 11

Filename E:\Pearl Jam\2009 – Ten Redux (Deluxe Edition) CD2\11 – Release (2008 Brendan O’Brien Mix).wav

Peak level 100.0 %
Extraction speed 9.3 X
Track quality 100.0 %
Test CRC 23DD21B7
Copy CRC 23DD21B7
Accurately ripped (confidence 4) [B7AD5367]
Copy OK

Track 12

Filename E:\Pearl Jam\2009 – Ten Redux (Deluxe Edition) CD2\12 – Brother (With Vocals).wav

Pre-gap length 0:00:01.30

Peak level 100.0 %
Extraction speed 9.0 X
Track quality 100.0 %
Test CRC F5F52E7E
Copy CRC F5F52E7E
Accurately ripped (confidence 4) [F83C200E]
Copy OK

Track 13

Filename E:\Pearl Jam\2009 – Ten Redux (Deluxe Edition) CD2\13 – Just A Girl (Demo).wav

Peak level 100.0 %
Extraction speed 9.5 X
Track quality 100.0 %
Test CRC 964B2A12
Copy CRC 964B2A12
Accurately ripped (confidence 4) [7C9D0EC3]
Copy OK

Track 14

Filename E:\Pearl Jam\2009 – Ten Redux (Deluxe Edition) CD2\14 – Breath And A Scream (Demo).wav

Pre-gap length 0:00:01.27

Peak level 100.0 %
Extraction speed 9.9 X
Track quality 100.0 %
Test CRC 248F2139
Copy CRC 248F2139
Accurately ripped (confidence 4) [CE344E60]
Copy OK

Track 15

Filename E:\Pearl Jam\2009 – Ten Redux (Deluxe Edition) CD2\15 – State Of Love And Trust (Demo).wav

Peak level 100.0 %
Extraction speed 9.9 X
Track quality 100.0 %
Test CRC 3488A660
Copy CRC 3488A660
Accurately ripped (confidence 4) [DFA679D8]
Copy OK

Track 16

Filename E:\Pearl Jam\2009 – Ten Redux (Deluxe Edition) CD2\16 – 2,000 Mile Blues.wav

Pre-gap length 0:00:01.05

Peak level 99.7 %
Extraction speed 7.8 X
Track quality 99.9 %
Test CRC 281BACD2
Copy CRC 281BACD2
Accurately ripped (confidence 4) [1C934F76]
Copy OK

Track 17

Filename E:\Pearl Jam\2009 – Ten Redux (Deluxe Edition) CD2\17 – Evil Little Goat (Rehearsal Studio Outtake).wav

Pre-gap length 0:00:00.62

Peak level 98.7 %
Extraction speed 8.1 X
Track quality 100.0 %
Test CRC B5C3A6E2
Copy CRC B5C3A6E2
Accurately ripped (confidence 4) [4D8A18F8]
Copy OK

All tracks accurately ripped

No errors occurred

End of status report

==== Log checksum 88A95B179E2583D0347A7B684524D6CDC773BDECE88C5B6374624871C748B762 ====

REM GENRE Grunge
REM DATE 2009
REM DISCID 840C840B
REM COMMENT “ExactAudioCopy v1.0b1”
PERFORMER “Pearl Jam”
TITLE “Ten (Deluxe Edition) CD1”
FILE “01 – Once.wav” WAVE
TRACK 01 AUDIO
TITLE “Once”
PERFORMER “Pearl Jam”
INDEX 01 00:00:00
FILE “02 – Even Flow.wav” WAVE
TRACK 02 AUDIO
TITLE “Even Flow”
PERFORMER “Pearl Jam”
INDEX 01 00:00:00
FILE “03 – Alive.wav” WAVE
TRACK 03 AUDIO
TITLE “Alive”
PERFORMER “Pearl Jam”
INDEX 01 00:00:00
FILE “04 – Why Go.wav” WAVE
TRACK 04 AUDIO
TITLE “Why Go”
PERFORMER “Pearl Jam”
INDEX 01 00:00:00
FILE “05 – Black.wav” WAVE
TRACK 05 AUDIO
TITLE “Black”
PERFORMER “Pearl Jam”
INDEX 01 00:00:00
FILE “06 – Jeremy.wav” WAVE
TRACK 06 AUDIO
TITLE “Jeremy”
PERFORMER “Pearl Jam”
INDEX 01 00:00:00
FILE “07 – Oceans.wav” WAVE
TRACK 07 AUDIO
TITLE “Oceans”
PERFORMER “Pearl Jam”
INDEX 01 00:00:00
FILE “08 – Porch.wav” WAVE
TRACK 08 AUDIO
TITLE “Porch”
PERFORMER “Pearl Jam”
INDEX 01 00:00:00
FILE “09 – Garden.wav” WAVE
TRACK 09 AUDIO
TITLE “Garden”
PERFORMER “Pearl Jam”
INDEX 01 00:00:00
FILE “10 – Deep.wav” WAVE
TRACK 10 AUDIO
TITLE “Deep”
PERFORMER “Pearl Jam”
INDEX 01 00:00:00
FILE “11 – Release.wav” WAVE
TRACK 11 AUDIO
TITLE “Release”
PERFORMER “Pearl Jam”
INDEX 01 00:00:00

REM GENRE Grunge
REM DATE 2009
REM DISCID 00126111
REM COMMENT “ExactAudioCopy v1.0b1”
PERFORMER “Pearl Jam”
TITLE “Ten Redux (Deluxe Edition) CD2”
FILE “01 – Once (2008 Brendan O’Brien Mix).wav” WAVE
TRACK 01 AUDIO
TITLE “Once (2008 Brendan O’Brien Mix)”
PERFORMER “Pearl Jam”
INDEX 01 00:00:00
FILE “02 – Even Flow (2008 Brendan O’Brien Mix).wav” WAVE
TRACK 02 AUDIO
TITLE “Even Flow (2008 Brendan O’Brien Mix)”
PERFORMER “Pearl Jam”
INDEX 01 00:00:00
FILE “03 – Alive (2008 Brendan O’Brien Mix).wav” WAVE
TRACK 03 AUDIO
TITLE “Alive (2008 Brendan O’Brien Mix)”
PERFORMER “Pearl Jam”
INDEX 01 00:00:00
FILE “04 – Why Go (2008 Brendan O’Brien Mix).wav” WAVE
TRACK 04 AUDIO
TITLE “Why Go (2008 Brendan O’Brien Mix)”
PERFORMER “Pearl Jam”
INDEX 01 00:00:00
FILE “05 – Black (2008 Brendan O’Brien Mix).wav” WAVE
TRACK 05 AUDIO
TITLE “Black (2008 Brendan O’Brien Mix)”
PERFORMER “Pearl Jam”
INDEX 01 00:00:00
FILE “06 – Jeremy (2008 Brendan O’Brien Mix).wav” WAVE
TRACK 06 AUDIO
TITLE “Jeremy (2008 Brendan O’Brien Mix)”
PERFORMER “Pearl Jam”
INDEX 01 00:00:00
TRACK 07 AUDIO
TITLE “Oceans (2008 Brendan O’Brien Mix)”
PERFORMER “Pearl Jam”
INDEX 00 05:15:73
FILE “07 – Oceans (2008 Brendan O’Brien Mix).wav” WAVE
INDEX 01 00:00:00
FILE “08 – Porch (2008 Brendan O’Brien Mix).wav” WAVE
TRACK 08 AUDIO
TITLE “Porch (2008 Brendan O’Brien Mix)”
PERFORMER “Pearl Jam”
INDEX 01 00:00:00
FILE “09 – Garden (2008 Brendan O’Brien Mix).wav” WAVE
TRACK 09 AUDIO
TITLE “Garden (2008 Brendan O’Brien Mix)”
PERFORMER “Pearl Jam”
INDEX 01 00:00:00
FILE “10 – Deep (2008 Brendan O’Brien Mix).wav” WAVE
TRACK 10 AUDIO
TITLE “Deep (2008 Brendan O’Brien Mix)”
PERFORMER “Pearl Jam”
INDEX 01 00:00:00
FILE “11 – Release (2008 Brendan O’Brien Mix).wav” WAVE
TRACK 11 AUDIO
TITLE “Release (2008 Brendan O’Brien Mix)”
PERFORMER “Pearl Jam”
INDEX 01 00:00:00
TRACK 12 AUDIO
TITLE “Brother (With Vocals)”
PERFORMER “Pearl Jam”
INDEX 00 08:58:02
FILE “12 – Brother (With Vocals).wav” WAVE
INDEX 01 00:00:00
FILE “13 – Just A Girl (Demo).wav” WAVE
TRACK 13 AUDIO
TITLE “Just A Girl (Demo)”
PERFORMER “Pearl Jam”
INDEX 01 00:00:00
TRACK 14 AUDIO
TITLE “Breath And A Scream (Demo)”
PERFORMER “Pearl Jam”
INDEX 00 05:01:18
FILE “14 – Breath And A Scream (Demo).wav” WAVE
INDEX 01 00:00:00
FILE “15 – State Of Love And Trust (Demo).wav” WAVE
TRACK 15 AUDIO
TITLE “State Of Love And Trust (Demo)”
PERFORMER “Pearl Jam”
INDEX 01 00:00:00
TRACK 16 AUDIO
TITLE “2,000 Mile Blues”
PERFORMER “Pearl Jam”
INDEX 00 04:47:67
FILE “16 – 2,000 Mile Blues.wav” WAVE
INDEX 01 00:00:00
TRACK 17 AUDIO
TITLE “Evil Little Goat (Rehearsal Studio Outtake)”
PERFORMER “Pearl Jam”
INDEX 00 03:57:43
FILE “17 – Evil Little Goat (Rehearsal Studio Outtake).wav” WAVE
INDEX 01 00:00:00


Spread the Download

Leave a Reply

Your email address will not be published. Required fields are marked *

Enter the text from the image below
 

This site uses Akismet to reduce spam. Learn how your comment data is processed.